<?xml version="1.0" standalone="no"?>
<!DOCTYPE svg PUBLIC "-//W3C//DTD SVG 1.1//EN" "http://www.w3.org/Graphics/SVG/1.1/DTD/svg11.dtd" >
<svg xmlns="http://www.w3.org/2000/svg">
  <metadata>Created by iconfont</metadata>
  <defs>
  <font id="iconfont" horiz-adv-x="1024">
    <font-face
      font-family="iconfont"
      font-weight="400"
      font-stretch="normal"
      units-per-em="1024"
      ascent="896"
      descent="-128"
    />
      <missing-glyph />
      
      <glyph glyph-name="a-gongzhonghao21" unicode="&#59021;" d="M118.442667 500.167111c2.389333 6.144 33.678222-183.921778 178.403555-278.983111l-15.928889-88.064a126.976 126.976 0 0 1 103.651556 48.071111l-0.113778 0.113778c84.878222-23.608889 196.835556-17.180444 343.267556 47.274667q-43.235556-143.132444-125.269334-194.730667c-152.120889-95.402667-391.623111-50.744889-483.271111 107.463111-26.055111 44.942222-68.266667 170.666667-0.739555 358.855111z m624.469333 100.807111a301.795556 301.795556 0 0 0 188.188444-363.747555c-14.734222-49.834667-44.487111-149.390222-227.555555-229.660445-9.784889-4.380444 293.376 368.469333-161.621333 588.515556a367.331556 367.331556 0 0 0 200.988444 4.892444z m49.493333 62.691556c6.883556-8.362667-416.711111 105.984-518.940444-322.503111v0.227555l-0.056889 0.113778C270.165333 345.144889 189.44 437.930667 192.853333 532.935111a320.341333 320.341333 0 0 0 314.026667 283.079111c52.053333 0 156.216889 0 285.468444-152.348444z"  horiz-adv-x="1024" />
      
      <glyph glyph-name="shoukuan" unicode="&#59139;" d="M512.125 853.323c259.269 0 469.448-210.18 469.448-469.448 0-259.269-210.179-469.448-469.448-469.448S42.677 124.606 42.677 383.875 252.857 853.323 512.125 853.323z m0-85.354c-212.13 0-384.094-171.965-384.094-384.094 0-212.13 171.965-384.094 384.094-384.094 212.13 0 384.094 171.965 384.094 384.094 0 212.13-171.965 384.094-384.094 384.094z m150.886-140.531c16.667-16.667 16.667-43.688 0-60.355l-97.854-97.853h75c23.57 0 42.676-19.108 42.676-42.678 0-23.57-19.107-42.677-42.677-42.677h-85.354v-85.354h85.354c23.57 0 42.677-19.107 42.677-42.677s-19.107-42.677-42.677-42.677h-85.354v-85.355c0-23.57-19.107-42.677-42.677-42.677s-42.677 19.108-42.677 42.677v85.355h-85.354c-23.57 0-42.677 19.107-42.677 42.677s19.107 42.677 42.677 42.677h85.353v85.355l-85.353-0.001c-23.57 0-42.677 19.107-42.677 42.677s19.107 42.677 42.677 42.677h74.998l-97.853 97.854c-16.667 16.667-16.667 43.688 0 60.355 16.666 16.666 43.688 16.666 60.354 0l90.532-90.532 90.532 90.532c16.666 16.666 43.688 16.666 60.354 0z"  horiz-adv-x="1024" />
      
      <glyph glyph-name="gainpic" unicode="&#59019;" d="M264.996571 540.818286l35.84-163.84 100.937143 100.864L585.142857 294.4 676.864 386.194286l131.437714-131.437715 61.44 281.088a5.558857 5.558857 0 0 1-1.097143 4.900572 5.558857 5.558857 0 0 1-4.534857 2.194286H264.557714l0.438857-2.048zM171.885714 617.618286l-35.986285 165.156571a37.302857 37.302857 0 0 0 72.996571 15.945143l39.497143-181.101714h615.789714c24.502857 0 47.396571-10.971429 62.756572-30.061715 15.36-19.090286 21.211429-43.812571 15.945142-67.730285l-80.749714-369.078857a80.822857 80.822857 0 0 0-78.701714-63.341715H352.548571a80.822857 80.822857 0 0 0-78.701714 63.341715l-69.997714 320.146285a38.034286 38.034286 0 0 0-0.438857 1.828572l-12.434286 56.905143-19.163429 87.990857z m505.051429-333.970286L585.142857 191.926857 401.773714 375.222857 319.268571 292.864l27.574858-126.098286a5.851429 5.851429 0 0 1 5.705142-4.608h430.811429a5.851429 5.851429 0 0 1 5.705143 4.608l0.804571 3.803429-113.005714 113.078857zM819.2 442.514286a43.885714 43.885714 0 1 0-87.771429 0 43.885714 43.885714 0 0 0 87.771429 0zM595.456 222.939429l71.021714 71.021714 10.386286 10.313143L585.142857 212.626286l10.313143 10.313143zM819.2 3.657143a43.885714 43.885714 0 1 0-87.771429 0 43.885714 43.885714 0 0 0 87.771429 0z m-473.014857 5.558857a37.302857 37.302857 0 0 0 37.302857 37.302857h110.006857a37.302857 37.302857 0 1 0 0-74.678857H383.561143a37.302857 37.302857 0 0 0-37.376 37.302857z"  horiz-adv-x="1024" />
      
      <glyph glyph-name="gainnopic" unicode="&#59022;" d="M783.36 87.405714H352.548571a80.896 80.896 0 0 0-78.701714 63.341715L171.739429 617.618286h692.370285c24.502857 0 47.396571-10.971429 62.756572-30.061715 15.36-19.090286 21.211429-43.812571 15.945143-67.730285l-80.749715-369.078857a80.822857 80.822857 0 0 0-78.701714-63.341715zM264.557714 542.866286L346.843429 166.765714a5.851429 5.851429 0 0 1 5.705142-4.608h430.811429a5.851429 5.851429 0 0 1 5.705143 4.608l80.749714 369.005715a5.558857 5.558857 0 0 1-1.170286 4.900571 5.558857 5.558857 0 0 1-4.534857 2.194286H264.557714zM717.385143 201.362286H418.523429a37.302857 37.302857 0 1 0 0 74.752h298.861714a37.302857 37.302857 0 1 0 0-74.752zM493.494857-28.16H383.561143a37.302857 37.302857 0 1 0 0 74.752h109.933714a37.302857 37.302857 0 1 0 0-74.752z m271.36 0a37.302857 37.302857 0 0 0-37.302857 37.302857v4.242286a37.302857 37.302857 0 0 0 74.605714 0v-4.169143a37.302857 37.302857 0 0 0-37.302857-37.376zM239.835429 443.245714a37.302857 37.302857 0 0 0-36.425143 29.403429l-67.584 310.052571a37.302857 37.302857 0 0 0 72.996571 15.945143l67.584-310.125714a37.302857 37.302857 0 0 0-36.571428-45.348572z"  horiz-adv-x="1024" />
      
      <glyph glyph-name="weixinzhifu" unicode="&#59012;" d="M372.434824 264.252235a34.063059 34.063059 0 0 0-45.116236 13.793883l-2.228706 4.909176-93.214117 204.528941a17.076706 17.076706 0 0 0 25.660235 20.87153l109.989647-78.305883a50.838588 50.838588 0 0 1 45.477647-5.210353L930.273882 655.058824C837.511529 764.295529 684.815059 835.704471 512 835.704471c-282.774588 0-512-191.006118-512-426.646589 0-128.572235 68.969412-244.284235 176.911059-322.499764 8.673882-6.174118 14.336-16.323765 14.336-27.798589 0-3.794824-0.813176-7.258353-1.807059-10.87247l-23.070118-86.076235c-1.084235-4.035765-2.770824-8.252235-2.770823-12.468706 0-9.426824 7.649882-17.076706 17.076706-17.076706a19.456 19.456 0 0 1 9.84847 3.162353l112.097883 64.692706c8.432941 4.879059 17.347765 7.890824 27.196235 7.890823 5.240471 0 10.300235-0.813176 15.058823-2.258823 52.284235-15.028706 108.694588-23.401412 167.122824-23.401412 282.774588 0 512 191.036235 512 426.676706 0 71.378824-21.142588 138.601412-58.307765 197.692235l-589.522823-340.329412-3.734588-2.138353z"  horiz-adv-x="1024" />
      
      <glyph glyph-name="jianshao2" unicode="&#59020;" d="M512 25.6c-197.93 0-358.4 160.47-358.4 358.4S314.07 742.4 512 742.4 870.4 581.93 870.4 384 709.93 25.6 512 25.6z m0-89.6c247.424 0 448 200.576 448 448S759.424 832 512 832 64 631.424 64 384s200.576-448 448-448zM332.8 428.8h358.4q44.8 0 44.8-44.8t-44.8-44.8H332.8q-44.8 0-44.8 44.8t44.8 44.8z"  horiz-adv-x="1024" />
      
      <glyph glyph-name="tianjia" unicode="&#59058;" d="M469.333333 426.666667V554.666667a42.666667 42.666667 0 0 0 85.333334 0v-128h128a42.666667 42.666667 0 0 0 0-85.333334h-128v-128a42.666667 42.666667 0 0 0-85.333334 0v128H341.333333a42.666667 42.666667 0 0 0 0 85.333334h128z m42.666667-469.333334C276.352-42.666667 85.333333 148.352 85.333333 384S276.352 810.666667 512 810.666667s426.666667-191.018667 426.666667-426.666667-191.018667-426.666667-426.666667-426.666667z m0 85.333334a341.333333 341.333333 0 1 1 0 682.666666 341.333333 341.333333 0 0 1 0-682.666666z"  horiz-adv-x="1024" />
      
      <glyph glyph-name="total-expand" unicode="&#59018;" d="M848.23 707.54c-9.36 0-18.71-3.57-25.86-10.71L512 386.45 201.62 696.83c-14.29 14.29-37.43 14.29-51.71 0-14.29-14.29-14.29-37.43 0-51.71l336.23-336.23c14.29-14.29 37.43-14.29 51.71 0l336.23 336.23c14.29 14.29 14.29 37.43 0 51.71-7.14 7.14-16.49 10.71-25.85 10.71zM848.23 469.83c-9.36 0-18.71-3.57-25.86-10.71L512 148.74 201.62 459.11c-14.29 14.29-37.43 14.29-51.71 0s-14.29-37.43 0-51.71l336.23-336.23c14.29-14.29 37.43-14.29 51.71 0L874.09 407.4c14.29 14.29 14.29 37.43 0 51.71-7.15 7.15-16.5 10.72-25.86 10.72z"  horiz-adv-x="1024" />
      
      <glyph glyph-name="weiyemian-shangpin" unicode="&#59015;" d="M768 768H256c-70.4 0-128-57.6-128-128v-512c0-70.4 57.6-128 128-128h512c70.4 0 128 57.6 128 128V640c0 70.4-57.6 128-128 128z m-512-64h512c35.2 0 64-28.8 64-64v-32H192v32c0 35.2 28.8 64 64 64z m512-640H256c-35.2 0-64 28.8-64 64V544h640v-416c0-35.2-28.8-64-64-64zM768 416c0 35.2-28.8 64-64 64s-64-28.8-64-64c0-22.4 11.2-41.6 27.2-52.8-16-70.4-80-123.2-155.2-123.2s-139.2 52.8-155.2 123.2c16 11.2 27.2 30.4 27.2 52.8 0 35.2-28.8 64-64 64s-64-28.8-64-64c0-25.6 14.4-46.4 35.2-57.6C312 254.4 403.2 176 512 176s200 78.4 220.8 182.4c20.8 11.2 35.2 32 35.2 57.6z"  horiz-adv-x="1024" />
      
      <glyph glyph-name="fenxiang" unicode="&#59183;" d="M722.2528 703.616a38.4 38.4 0 0 0-15.104-50.4064l-2.0736-1.1136-309.6064-154.8032A204.2752 204.2752 0 0 0 409.6 422.4c0-23.7696-4.0448-46.592-11.4944-67.8144l272-152.32A159.7952 159.7952 0 0 0 800 268.8C888.3712 268.8 960 197.1712 960 108.8S888.3712-51.2 800-51.2 640 20.4288 640 108.8c0 7.296 0.4864 14.464 1.4336 21.504L359.5008 288.1792A204.3264 204.3264 0 0 0 204.8 217.6C91.6864 217.6 0 309.2864 0 422.4s91.6864 204.8 204.8 204.8c58.9056 0 112-24.8704 149.376-64.6912L670.72 720.7936a38.4 38.4 0 0 0 51.52-17.1776zM800 192a83.2 83.2 0 1 1 0-166.4 83.2 83.2 0 0 1 0 166.4zM204.8 550.4c-70.6944 0-128-57.3056-128-128s57.3056-128 128-128 128 57.3056 128 128-57.3056 128-128 128zM812.8 896C724.4288 896 652.8 824.3712 652.8 736S724.4288 576 812.8 576 972.8 647.6288 972.8 736 901.1712 896 812.8 896z m0-76.8a83.2 83.2 0 1 0 0-166.4 83.2 83.2 0 0 0 0 166.4z"  horiz-adv-x="1107" />
      
      <glyph glyph-name="tiankongti" unicode="&#59016;" d="M194.048 28.416h89.6c-95.232 102.656-142.848 220.2624-142.848 352.768C144.5376 511.8464 191.1808 632.32 280.7808 742.4H194.048C104.448 641.5872 56.832 521.216 51.2 381.184c1.8432-134.4 49.4592-252.0064 142.848-352.768z m549.1712 0h86.784c93.3376 100.7616 140.9536 218.368 142.7968 352.768-5.632 141.8752-52.224 262.2976-139.9808 361.216h-89.6c89.6-110.1312 136.2432-230.5536 139.9808-361.216 0-136.2432-46.6432-253.8496-139.9808-352.768zM383.1808 641.1776a25.6 25.6 0 0 1 0-51.2h256a25.6 25.6 0 0 1 0 51.2h-256z m-25.6-486.4a25.6 25.6 0 0 0 25.6 25.6h76.8v409.6h102.4v-409.6h76.8a25.6 25.6 0 1 0 0-51.2h-256a25.6 25.6 0 0 0-25.6 25.6z"  horiz-adv-x="1024" />
      
      <glyph glyph-name="shijuanguanli" unicode="&#59017;" d="M433.8 508.4H632.6c16.6 3.7 28.7 17.1 28.7 32 0 19.7-12.3 32-32 32H430.5c-16.6-3.7-28.7-17.1-28.7-32 0-19.7 12.3-32 32-32zM817.7 220.4V665.3c-3.8 58.5-51.2 102.6-110.2 102.6H230.6C172.1 764.1 128 716.7 128 657.7c0-30.3 11.2-58.1 31.6-78.6 20.4-20.4 48.3-31.6 78.6-31.6h7.1v-444.9c3.8-58.5 51.2-102.6 110.2-102.6h441.7c55.3 3.8 98.7 52.2 98.7 110.2V220.4h-78.2zM192 657.8c0 27.2 19 46.2 46.2 46.2h7.1v-92.5h-11.7l-0.7 0.1c-23.7 4.8-40.9 24.2-40.9 46.2z m117.3-547.6V704h402.8l0.7-0.1c23.7-4.7 40.9-24.1 40.9-46.1v-437.3h-352v-114.8l-0.1-0.7c-4.6-22.9-23.1-40.9-42.2-40.9H351l-0.7 0.1c-23.8 4.7-41 24.1-41 46z m149-36.8c3.8 11.5 7.5 22.4 7.5 36.9v46.2H832v-50.9l-0.1-0.7c-4.6-22.9-23.1-40.9-42.2-40.9H455.2l3.1 9.4zM433.8 352H632.6c16.6 3.7 28.7 17.1 28.7 32 0 19.7-12.3 32-32 32H430.5c-16.6-3.7-28.7-17.1-28.7-32 0-19.7 12.3-32 32-32z"  horiz-adv-x="1024" />
      
      <glyph glyph-name="chakan" unicode="&#58995;" d="M716.762463 896C204.762463 896 0 384 0 384s204.762463-512 716.762463-512c512 0 716.762463 512 716.762463 512S1228.57478 896 716.762463 896L716.762463 896zM716.762463 76.950147c-169.665689 0-307.237537 137.571848-307.237537 307.237537 0 169.665689 137.571848 307.237537 307.237537 307.237537 169.665689 0 307.237537-137.571848 307.237537-307.237537C1023.812317 214.334311 886.240469 76.950147 716.762463 76.950147L716.762463 76.950147zM716.762463 76.950147M870.28739 384c0-84.832845-68.879765-153.524927-153.524927-153.524927S563.049853 299.354839 563.049853 384c0 84.832845 68.879765 153.524927 153.524927 153.524927C801.595308 537.71261 870.28739 468.832845 870.28739 384L870.28739 384zM870.28739 384"  horiz-adv-x="1434" />
      
      <glyph glyph-name="shaixuan" unicode="&#58997;" d="M576.111-31.64c-4.956 0-9.922 1.15-14.485 3.467l-128.026 65a32 32 0 0 0-17.513 28.533V398.317L165.184 649.221a32 32 0 0 0 22.627 54.627h640.857a32 32 0 0 0 22.627-54.627L608.112 406.037V0.36a31.997 31.997 0 0 0-32.001-32z m-96.024 116.642l64.025-32.507V419.292a31.996 31.996 0 0 0 9.373 22.627l197.928 197.929H265.066L470.714 434.2a32.001 32.001 0 0 0 9.373-22.627v-326.571z"  horiz-adv-x="1024" />
      
      <glyph glyph-name="xuanzhongjiaobiao" unicode="&#58998;" d="M433.191281 122.227665H989.244309c20.292532 0 36.744447 16.448112 36.744447 36.738743v530.955921L433.191281 122.227665z m522.639652 215.384515l-124.1128-124.103294a13.373716 13.373716 0 0 0-19.014861 0l-18.99775 19.014862-62.911983 61.010687c-7.937911 7.93601-7.937911 20.672791 0 28.591689s20.672791 7.918898 28.59359 0l53.316143-51.414846a13.373716 13.373716 0 0 1 19.014861 0l95.502098 95.513506c7.937911 7.953121 20.672791 7.916997 28.610702-0.017112a20.148034 20.148034 0 0 0 0-28.595492z"  horiz-adv-x="1503" />
      
      <glyph glyph-name="button-component" unicode="&#59073;" d="M992-32H32c-19.2 0-32 12.8-32 32V768c0 19.2 12.8 32 32 32h960c19.2 0 32-12.8 32-32v-768c0-19.2-12.8-32-32-32zM64 32h896v704H64v-704zM294.4 396.8c6.4 0 6.4 6.4 6.4 12.8 12.8 12.8 19.2 25.6 19.2 44.8 0 19.2-6.4 38.4-25.6 51.2-19.2 12.8-38.4 19.2-64 19.2H140.8v-281.6h89.6c25.6 0 51.2 6.4 70.4 25.6 19.2 19.2 32 38.4 32 64 0 19.2-6.4 38.4-19.2 51.2-6.4 6.4-12.8 6.4-19.2 12.8z m-51.2 32c-6.4-6.4-12.8-12.8-25.6-12.8h-12.8v51.2h19.2c32 0 32-12.8 32-19.2 0-12.8-6.4-19.2-12.8-19.2z m-38.4-70.4h19.2c44.8 0 44.8-19.2 44.8-25.6-6.4-12.8-6.4-19.2-12.8-25.6-6.4 0-12.8-6.4-25.6-6.4h-25.6v57.6zM371.2 467.2H448v-224h64V467.2h70.4v57.6H371.2zM819.2 524.8v-172.8l-108.8 172.8h-64v-281.6h64V416l108.8-172.8h64V524.8z"  horiz-adv-x="1024" />
      
      <glyph glyph-name="riqi" unicode="&#58999;" d="M475.451077 307.987692h73.097846A36.233846 36.233846 0 0 1 585.097846 344.615385a36.233846 36.233846 0 0 1-36.548923 36.78523h-73.097846A36.233846 36.233846 0 0 1 438.902154 344.615385a36.233846 36.233846 0 0 1 36.548923-36.706462z m0-146.983384h73.097846a36.233846 36.233846 0 0 1 36.548923 36.78523 36.233846 36.233846 0 0 1-36.548923 36.706462h-73.097846a36.233846 36.233846 0 0 1-36.548923-36.706462 36.233846 36.233846 0 0 1 36.548923-36.78523zM877.489231 822.272H731.214769V858.978462A36.233846 36.233846 0 0 1 694.744615 895.763692a36.233846 36.233846 0 0 1-36.470153-36.78523v-36.706462H365.804308V858.978462A36.233846 36.233846 0 0 1 329.255385 895.763692a36.233846 36.233846 0 0 1-36.470154-36.78523v-36.706462H146.510769c-80.344615 0-146.195692-66.166154-146.195692-146.983385v-587.69723c0-80.817231 65.772308-146.983385 146.195692-146.983385h730.820923c80.344615 0 146.195692 66.166154 146.195693 146.983385V675.288615A146.983385 146.983385 0 0 1 877.410462 822.272z m73.097846-734.680615a73.491692 73.491692 0 0 0-73.097846-73.491693H146.510769a73.491692 73.491692 0 0 0-73.097846 73.491693V528.384h877.016615v-440.792615z m0 514.284307H73.491692v73.412923c0 40.408615 32.925538 73.491692 73.097846 73.491693h146.195693v-36.706462a36.233846 36.233846 0 0 1 36.470154-36.785231 36.233846 36.233846 0 0 1 36.548923 36.785231V748.701538h292.391384v-36.706461a36.233846 36.233846 0 0 1 36.470154-36.785231 36.233846 36.233846 0 0 1 36.548923 36.785231V748.701538h146.195693c40.172308 0 73.097846-33.083077 73.097846-73.491692v-73.412923zM256.236308 161.004308h73.019077a36.233846 36.233846 0 0 1 36.548923 36.78523 36.233846 36.233846 0 0 1-36.548923 36.706462h-73.019077a36.233846 36.233846 0 0 1-36.548923-36.706462 36.233846 36.233846 0 0 1 36.548923-36.78523z m438.429538 146.983384h73.097846A36.233846 36.233846 0 0 1 804.312615 344.615385a36.233846 36.233846 0 0 1-36.548923 36.78523H694.744615A36.233846 36.233846 0 0 1 658.195692 344.615385a36.233846 36.233846 0 0 1 36.470154-36.706462z m-438.429538 0h73.019077A36.233846 36.233846 0 0 1 365.804308 344.615385a36.233846 36.233846 0 0 1-36.548923 36.78523h-73.019077A36.233846 36.233846 0 0 1 219.687385 344.615385a36.233846 36.233846 0 0 1 36.548923-36.706462z m438.429538-146.983384h73.097846a36.233846 36.233846 0 0 1 36.548923 36.78523 36.233846 36.233846 0 0 1-36.548923 36.706462H694.744615a36.233846 36.233846 0 0 1-36.470153-36.706462 36.233846 36.233846 0 0 1 36.470153-36.78523z"  horiz-adv-x="1024" />
      
      <glyph glyph-name="zujian" unicode="&#59000;" d="M972.09863-120.986301H259.506849c-19.638356 0-35.068493 15.430137-35.068493 35.068493V127.29863c-8.416438-5.610959-18.235616-9.819178-28.054794-12.624657h-1.40274c-12.624658-4.208219-26.652055-5.610959-39.276712-5.610959-77.150685 0-138.871233 63.123288-138.871233 138.871233 0 77.150685 63.123288 138.871233 138.871233 138.871232 14.027397 0 28.054795-2.805479 42.082191-7.013698 1.40274 0 2.805479-1.40274 4.20822-1.40274 7.013699-2.805479 14.027397-5.610959 19.638356-8.416438l2.805479-1.40274V626.673973c0 19.638356 15.430137 35.068493 35.068493 35.068493h228.646576l-4.20822 8.416438c-7.013699 11.221918-12.624658 22.443836-15.430137 35.068493v1.40274c-4.208219 12.624658-5.610959 26.652055-5.610958 39.276712C462.90411 823.057534 526.027397 884.778082 601.775342 884.778082c77.150685 0 138.871233-63.123288 138.871233-138.871233 0-14.027397-2.805479-28.054795-7.013698-42.082191 0-1.40274-1.40274-2.805479-1.40274-4.20822-2.805479-7.013699-5.610959-14.027397-8.416438-19.638356l-7.013699-16.832877h255.29863c19.638356 0 35.068493-15.430137 35.068493-35.068493v-314.213698c0-11.221918-5.610959-22.443836-15.430137-29.457535-9.819178-7.013699-22.443836-7.013699-33.665753-2.805479L897.753425 308.252055c-1.40274 0-1.40274 1.40274-2.80548 1.40274-2.805479 1.40274-7.013699 4.208219-11.221918 5.610958h-1.402739c-7.013699 2.805479-14.027397 2.805479-21.041096 2.80548-37.873973 0-68.734247-30.860274-68.734247-68.734247s30.860274-68.734247 68.734247-68.734246c7.013699 0 14.027397 1.40274 19.638356 2.805479 7.013699 1.40274 12.624658 5.610959 18.235616 8.416439 1.40274 1.40274 2.805479 1.40274 4.20822 2.805479l53.304109 25.249315c11.221918 5.610959 23.846575 4.208219 33.665754-1.40274s16.832877-18.235616 16.832876-29.457534V-85.917808c0-19.638356-15.430137-35.068493-35.068493-35.068493z m-677.523288 70.136986h642.454795v182.356164h-1.40274c-11.221918-7.013699-22.443836-12.624658-35.068493-16.832876h-1.40274c-12.624658-4.208219-26.652055-5.610959-39.276712-5.610959-77.150685 0-138.871233 63.123288-138.871233 138.871233 0 77.150685 63.123288 138.871233 138.871233 138.871232 14.027397 0 28.054795-2.805479 42.082192-7.013698 1.40274 0 2.805479-1.40274 4.208219-1.40274 7.013699-2.805479 14.027397-5.610959 19.638356-8.416438l9.819178-4.208219v224.438356H662.093151c-11.221918 0-22.443836 5.610959-29.457535 15.430137-7.013699 9.819178-7.013699 22.443836-2.805479 33.665753l29.457534 67.331507c0 1.40274 1.40274 1.40274 1.40274 2.805479 1.40274 2.805479 4.208219 7.013699 5.610959 11.221918v1.40274c2.805479 7.013699 2.805479 14.027397 2.805479 21.041096 0 37.873973-30.860274 68.734247-68.734246 68.734246s-68.734247-30.860274-68.734247-68.734246c0-7.013699 1.40274-14.027397 2.80548-19.638356 1.40274-7.013699 5.610959-12.624658 8.416438-18.235617 1.40274-1.40274 1.40274-2.805479 2.805479-4.208219l28.054795-60.317808c5.610959-11.221918 4.208219-23.846575-1.40274-33.665754s-18.235616-16.832877-29.457534-16.832876H294.575342v-274.936987c0-11.221918-5.610959-22.443836-15.430137-29.457534-9.819178-7.013699-22.443836-7.013699-33.665753-2.805479L192.175342 306.849315c-1.40274 0-1.40274 1.40274-2.805479 1.40274-2.805479 1.40274-7.013699 4.208219-11.221918 5.610959h-1.40274c-7.013699 2.805479-14.027397 2.805479-21.041095 2.805479-37.873973 0-68.734247-30.860274-68.734247-68.734246s30.860274-68.734247 68.734247-68.734247c7.013699 0 14.027397 1.40274 19.638356 2.805479 7.013699 1.40274 12.624658 5.610959 18.235616 8.416439 1.40274 1.40274 2.805479 1.40274 4.208219 2.805479l46.290411 22.443836c11.221918 5.610959 23.846575 4.208219 33.665754-1.40274 9.819178-7.013699 16.832877-18.235616 16.832876-29.457534v-235.660274z"  horiz-adv-x="1024" />
      
      <glyph glyph-name="yuyue" unicode="&#59001;" d="M788.67 117.29999999999995h-67.409c-17.673 0-32 14.327-32 32s14.327 32 32 32h67.409c17.673 0 32-14.327 32-32s-14.327-32-32-32zM461 22H190.608C141.75 22 102 61.75 102 110.60799999999995v537c0 48.859 39.75 88.608 88.608 88.608h625.784c48.859 0 88.608-39.75 88.608-88.608V541c0-17.673-14.327-32-32-32s-32 14.327-32 32V647.608c0 13.569-11.039 24.608-24.608 24.608H190.608c-13.569 0-24.608-11.039-24.608-24.608v-537C166 97.03899999999999 177.039 86 190.608 86H461c17.673 0 32-14.327 32-32s-14.327-32-32-32zM744.045-30.700000000000045c-118.141 0-214.254 96.114-214.254 214.254s96.114 214.254 214.254 214.254S958.3 301.69500000000005 958.3 183.55399999999997 862.186-30.700000000000045 744.045-30.700000000000045z m0 358.008c-79.266 0-143.754-64.488-143.754-143.754S664.779 39.799999999999955 744.045 39.799999999999955s143.754 64.488 143.754 143.754-64.487 143.754-143.754 143.754zM720.6 125.89200000000005c-17.673 0-32 14.327-32 32V225.29999999999995c0 17.673 14.327 32 32 32s32-14.327 32-32v-67.408c0-17.673-14.328-32-32-32zM162.817 475.002l0.173 64 742.003-2.004-0.173-64zM333.794 797.848h64v-213.335h-64zM617.354 796.736h64v-213.335h-64zM224 382h221.511v-64H224zM226.576 249h221.511v-64H226.576z"  horiz-adv-x="1024" />
      
      <glyph glyph-name="gongsi" unicode="&#59241;" d="M940.032 33.28H890.88V592.896c0 16.384-9.728 30.72-24.576 37.888l-245.248 128c-13.824 6.144-29.184 6.144-43.008 0-15.36-6.144-25.088-20.992-24.576-101.888V-30.72h-49.152V724.992c0 82.944 0 95.232-18.432 101.888-15.872 6.656-33.28 6.656-49.152 0L156.16 678.912c-14.848-7.168-24.576-22.528-24.576-38.912v-607.232h-49.152c-12.288 0-18.432-6.656-18.432-12.8V-51.2c0-6.144 6.144-12.8 18.432-12.8h857.6c5.632 0 17.408 6.656 18.432 12.8v70.656c1.536 7.68-11.776 13.824-18.432 13.824zM364.032 123.392c0-7.168-5.632-12.8-12.8-12.8H282.112c-7.168 0-12.8 5.632-12.8 12.8v59.904c0 7.168 5.632 12.8 12.8 12.8h70.656c7.168 0 12.8-5.632 12.8-12.8l-1.536-59.904z m0 180.736c0-7.168-5.632-12.8-12.8-12.8H282.112c-7.168 0-12.8 5.632-12.8 12.8v60.928c0 7.168 5.632 12.8 12.8 12.8h70.656c7.168 0 12.8-5.632 12.8-12.8l-1.536-60.928z m0 180.224c0-7.168-5.632-12.8-12.8-12.8H282.112c-7.168 0-12.8 5.632-12.8 12.8v61.44c0 7.168 5.632 12.8 12.8 12.8h70.656c7.168 0 12.8-5.632 12.8-12.8l-1.536-61.44z m403.968-360.448c0-7.168-5.632-12.8-12.8-12.8h-70.656c-7.168 0-12.8 5.632-12.8 12.8V184.32c0 7.168 5.632 12.8 12.8 12.8h70.656c7.168 0 12.8-5.632 12.8-12.8v-60.416z m0 180.736c0-7.168-5.632-12.8-12.8-12.8h-70.656c-7.168 0-12.8 5.632-12.8 12.8v60.416c0 7.168 5.632 12.8 12.8 12.8h70.656c7.168 0 12.8-5.632 12.8-12.8v-60.416z m0 180.224c0-7.168-5.632-12.8-12.8-12.8h-70.656c-7.168 0-12.8 5.632-12.8 12.8V545.792c0 7.168 5.632 12.8 12.8 12.8h70.656c7.168 0 12.8-5.632 12.8-12.8v-60.928z"  horiz-adv-x="1024" />
      
      <glyph glyph-name="confirm-code" unicode="&#59002;" d="M995.555556-33.848889A37.262222 37.262222 0 0 0 958.293333-71.111111H94.151111A37.262222 37.262222 0 0 0 56.888889-33.848889V128H0v-161.848889A94.435556 94.435556 0 0 1 94.151111-128h864.142222A94.435556 94.435556 0 0 1 1052.444444-33.848889V128h-56.888888zM958.293333 896H94.151111A94.435556 94.435556 0 0 1 0 801.848889V640h56.888889V801.848889A37.262222 37.262222 0 0 0 94.151111 839.111111h864.142222A37.262222 37.262222 0 0 0 995.555556 801.848889V640h56.888888V801.848889A94.435556 94.435556 0 0 1 958.293333 896zM119.751111 696.888889v-288.995556H42.666667v-47.786666h77.084444V71.111111h56.888889V360.106667h54.897778V71.111111h85.333333V360.106667h69.12V71.111111h28.444445V360.106667h83.342222V71.111111h56.888889V360.106667h54.897777V71.111111h85.333334V360.106667h69.12V71.111111h28.444444V360.106667h83.342222V71.111111h56.888889V360.106667h77.084445v47.786666h-77.084445V696.888889h-56.888889v-288.995556h-83.342222V696.888889h-28.444444v-288.995556h-69.12V696.888889h-85.333334v-288.995556H554.666667V696.888889h-56.888889v-288.995556h-83.342222V696.888889h-28.444445v-288.995556h-69.12V696.888889h-85.333333v-288.995556H176.64V696.888889h-56.888889z"  horiz-adv-x="1052" />
      
      <glyph glyph-name="erweima" unicode="&#59003;" d="M378.672 704A37.344 37.344 0 0 0 416 666.672v-149.328A37.344 37.344 0 0 0 378.672 480h-149.328A37.344 37.344 0 0 0 192 517.328v149.328A37.344 37.344 0 0 0 229.328 704h149.344m0 64h-149.328A101.44 101.44 0 0 1 128 666.672v-149.328A101.44 101.44 0 0 1 229.328 416h149.328A101.44 101.44 0 0 1 480 517.328v149.328A101.44 101.44 0 0 1 378.672 768zM794.672 704A37.344 37.344 0 0 0 832 666.672v-149.328A37.344 37.344 0 0 0 794.672 480h-149.328A37.344 37.344 0 0 0 608 517.328v149.328A37.344 37.344 0 0 0 645.328 704h149.344m0 64h-149.328A101.44 101.44 0 0 1 544 666.672v-149.328A101.44 101.44 0 0 1 645.328 416h149.328A101.44 101.44 0 0 1 896 517.328v149.328A101.44 101.44 0 0 1 794.672 768zM378.672 288A37.344 37.344 0 0 0 416 250.672v-149.328A37.344 37.344 0 0 0 378.672 64h-149.328A37.344 37.344 0 0 0 192 101.328v149.328A37.344 37.344 0 0 0 229.328 288h149.344m0 64h-149.328A101.44 101.44 0 0 1 128 250.672v-149.328A101.44 101.44 0 0 1 229.328 0h149.328A101.44 101.44 0 0 1 480 101.328v149.328A101.44 101.44 0 0 1 378.672 352zM304 592m-32 0a32 32 0 1 1 64 0 32 32 0 1 1-64 0ZM304 176m-32 0a32 32 0 1 1 64 0 32 32 0 1 1-64 0ZM720 592m-32 0a32 32 0 1 1 64 0 32 32 0 1 1-64 0ZM864 32m-32 0a32 32 0 1 1 64 0 32 32 0 1 1-64 0ZM736 32m-32 0a32 32 0 1 1 64 0 32 32 0 1 1-64 0ZM864 352a32 32 0 0 1-32-32v-128h-64v128a32 32 0 0 1-32 32H576a32 32 0 0 1-32-32v-288a32 32 0 0 1 64 0V288h96v-128a32 32 0 0 1 32-32h128a32 32 0 0 1 32 32V320a32 32 0 0 1-32 32z"  horiz-adv-x="1024" />
      
      <glyph glyph-name="zhiwei" unicode="&#59006;" d="M844.047477 801.143642H796.602557V896h-94.856358V801.143642H322.253801V896H227.397443V801.143642H179.952523A94.856358 94.856358 0 0 1 85.096165 706.287284v-664.094955a94.856358 94.856358 0 0 1 94.856358-94.856358h664.094954a95.157702 95.157702 0 0 1 94.856358 94.856358V706.287284a95.157702 95.157702 0 0 1-94.856358 94.856358zM512 658.842363a142.100383 142.100383 0 0 0 142.301278-142.301278A142.100383 142.100383 0 0 0 512 374.239806a142.100383 142.100383 0 0 0-142.301278 142.301279A142.100383 142.100383 0 0 0 512 658.842363z m284.602557-569.205114h-569.205114v47.444921c0 94.856358 189.746199 147.022333 284.602557 147.022333s284.602557-52.165975 284.602557-147.022333V89.637249z"  horiz-adv-x="1024" />
      
      <glyph glyph-name="Icon-yuyuemenzhen" unicode="&#59007;" d="M387.2 573.1c-15.7 0-28.5 12.8-28.5 28.5V711.9c0 15.7 12.8 28.5 28.5 28.5s28.5-12.8 28.5-28.5v-110.3c0-15.8-12.7-28.5-28.5-28.5zM636.6 572.5c-15.7 0-28.5 12.8-28.5 28.5V711.3c0 15.7 12.8 28.5 28.5 28.5s28.5-12.8 28.5-28.5V601c0-15.8-12.7-28.5-28.5-28.5zM476.9 141.4c-5.2-5.3-13.7-5.3-18.9 0l-4.2 4.2-4.5 4.5-19.6 19.9c0 0.1 0 0.2-0.1 0.2l-89.9 91.4c-5.2 5.3-5.2 13.8 0 19l28.3 28.5c5.2 5.3 13.7 5.3 18.9 0l80.6-82L637 398.2c5.2 5.3 13.6 5.3 18.9 0l28.3-28.5c5.2-5.3 5.2-13.8 0-19L476.9 141.4z m0 0M856.1 685.1H709v-57h136.3v-543.5H178.7V628.1H315v57H167.9c-25.5 0-46.2-20.7-46.2-46.2v-565.1c0-25.5 20.7-46.2 46.2-46.2h688.2c25.5 0 46.2 20.7 46.2 46.2V638.9c0 25.5-20.7 46.2-46.2 46.2zM453 685.1h118v-57H453zM178.7 509.6h666.6v-57H178.7z"  horiz-adv-x="1024" />
      
      <glyph glyph-name="cache-icon" unicode="&#59009;" d="M993.371558 406.26087c-19.080745 19.080745-44.521739 25.440994-69.962733 25.440993-25.440994 0-50.881988-12.720497-69.962733-31.801242l-356.173913-356.173913c-6.360248-6.360248-6.360248-12.720497-12.720497-19.080745 0 0 0-6.360248-6.360248-12.720497l-19.080746-69.962733c0-19.080745 0-31.801242 12.720497-50.881988 12.720497-12.720497 31.801242-19.080745 44.521739-19.080745h6.360249l76.322981 19.080745c6.360248 0 25.440994 6.360248 31.801242 12.720497l356.173913 356.173913c38.161491 44.521739 38.161491 108.124224 6.360249 146.285715z m-394.335404-451.57764l-63.602484-12.720497 12.720496 69.962733 292.571429 292.571428 50.881988-57.242236-292.571429-292.571428z m349.813665 349.813664l-12.720497-12.720496-50.881988 50.881987 12.720497 12.720497c6.360248 6.360248 12.720497 12.720497 25.440994 12.720497s25.440994 0 31.801242-6.360249c6.360248-6.360248 6.360248-12.720497 6.360249-25.440993s-6.360248-25.440994-12.720497-31.801243zM344.626216-45.31677h-228.968944c-19.080745 0-44.521739 19.080745-44.521739 44.521739v788.670807c0 19.080745 19.080745 44.521739 44.521739 44.52174h750.509317c19.080745 0 44.521739-19.080745 44.521739-44.52174v-133.565217c0-12.720497 12.720497-25.440994 31.801242-25.440994s31.801242 12.720497 31.801242 25.440994v133.565217c0 63.602484-50.881988 108.124224-108.124223 108.124224h-750.509317c-57.242236 0-108.124224-44.521739-108.124224-101.763975V5.565217c0-57.242236 44.521739-101.763975 108.124224-101.763975h228.968944c19.080745 0 31.801242 12.720497 31.801242 31.801242 6.360248 19.080745-19.080745 19.080745-31.801242 19.080746zM815.284601 705.192547c-6.360248 6.360248-12.720497 6.360248-25.440994 6.360248h-578.782608c-19.080745 0-31.801242-6.360248-31.801242-31.801242s12.720497-31.801242 31.801242-31.801242h578.782608c19.080745 0 31.801242 12.720497 31.801243 31.801242 0 12.720497 0 25.440994-6.360249 25.440994zM211.060999 304.496894c-19.080745 0-31.801242-6.360248-31.801242-31.801242s12.720497-31.801242 31.801242-31.801242h337.093167c19.080745 0 31.801242 12.720497 31.801243 31.801242s-12.720497 31.801242-31.801243 31.801242h-337.093167zM815.284601 495.304348c0 19.080745-6.360248 31.801242-31.801242 31.801242h-572.42236c-19.080745 0-31.801242-12.720497-31.801242-31.801242s12.720497-31.801242 31.801242-31.801242h578.782608c12.720497 0 25.440994 19.080745 25.440994 31.801242zM942.48957 609.78882c-19.080745 0-31.801242-12.720497-31.801242-25.440994v-25.440994c0-12.720497 12.720497-25.440994 31.801242-25.440993s31.801242 12.720497 31.801242 25.440993v25.440994c0 12.720497-19.080745 25.440994-31.801242 25.440994z"  horiz-adv-x="1024" />
      
      <glyph glyph-name="mobansheji" unicode="&#59011;" d="M921.6 793.6v-358.4h-256V793.6h256M358.4 793.6v-153.6H102.4V793.6h256m0-460.8v-358.4H102.4v358.4h256m563.2-204.8v-153.6h-256v153.6h256m0 768h-256c-56.32 0-102.4-46.08-102.4-102.4v-358.4c0-56.32 46.08-102.4 102.4-102.4h256c56.32 0 102.4 46.08 102.4 102.4V793.6c0 56.32-46.08 102.4-102.4 102.4zM358.4 896H102.4C46.08 896 0 849.92 0 793.6v-153.6c0-56.32 46.08-102.4 102.4-102.4h256c56.32 0 102.4 46.08 102.4 102.4V793.6c0 56.32-46.08 102.4-102.4 102.4z m0-460.8H102.4c-56.32 0-102.4-46.08-102.4-102.4v-358.4c0-56.32 46.08-102.4 102.4-102.4h256c56.32 0 102.4 46.08 102.4 102.4v358.4c0 56.32-46.08 102.4-102.4 102.4z m563.2-204.8h-256c-56.32 0-102.4-46.08-102.4-102.4v-153.6c0-56.32 46.08-102.4 102.4-102.4h256c56.32 0 102.4 46.08 102.4 102.4v153.6c0 56.32-46.08 102.4-102.4 102.4z"  horiz-adv-x="1024" />
      
      <glyph glyph-name="jinzhichakan" unicode="&#59606;" d="M159.59552 698.83392l50.688 50.688 654.19776-654.20288-50.688-50.68288zM403.456 397.312c0-59.904 48.64-108.544 108.544-108.544 10.752 0 21.504 1.536 31.232 4.608L408.064 428.544c-3.072-9.728-4.608-20.48-4.608-31.232zM512 614.912c120.32 0 217.6-97.28 217.6-217.6 0-41.472-11.776-80.384-31.744-113.152l77.824-77.824c64.512 45.056 121.856 108.544 171.52 191.488-110.08 181.248-254.976 271.872-435.2 271.872-60.416 0-116.736-10.24-168.96-30.72l55.808-55.808c32.768 19.968 71.68 31.744 113.152 31.744zM512 179.712c-120.32 0-217.6 97.28-217.6 217.6 0 41.472 11.776 80.384 31.744 113.152L248.832 588.288C184.32 543.232 126.976 479.744 76.8 397.312c108.544-181.248 253.44-271.872 435.2-271.872 60.416 0 116.736 10.24 169.472 30.208l-55.808 55.808c-33.28-20.48-72.192-31.744-113.664-31.744zM620.544 397.312c0 59.904-48.64 108.544-108.544 108.544-10.752 0-21.504-1.536-31.232-4.608l135.168-135.168c3.072 9.728 4.608 19.968 4.608 31.232z"  horiz-adv-x="1024" />
      
      <glyph glyph-name="dianji" unicode="&#59013;" d="M436.790468-69.130894l-0.435745 0.740766c-0.588255 1.024-1.612255 2.331234-2.505532 3.485958l-0.305021 0.501106c-0.457532 0.653617-1.002213 1.350809-1.350808 2.004426l-2.244085 3.246298-0.261447 0.305021-109.916596 169.199659a90.939915 90.939915 0 0 0-13.07234 67.126469 88.761191 88.761191 0 0 0 36.537191 57.017191 84.36017 84.36017 0 0 0 85.405958 6.209362v282.798298C428.511319 572.677447 465.571404 612.765957 511.106723 612.765957c45.469957 0 82.595404-40.088511 82.595405-89.327659v-90.852766a66.233191 66.233191 0 0 0 20.741446 3.377021c21.525787 0 41.875064-10.370723 56.211064-28.27983a69.828085 69.828085 0 0 0 37.670128 11.677958 68.629787 68.629787 0 0 0 42.485106-15.011404c9.477447-7.40766 17.429787-16.994043 23.203405-28.12732 6.710468 2.113362 13.682383 3.268085 20.676085 3.268086 42.37617 0 76.821787-40.088511 76.821787-89.32766v-237.655149c0-52.572596-23.246979-110.679149-59.217702-148.109617-20.044255-20.850383-41.613617-32.397617-60.938894-32.397617H516.531745c-44.010213 0-63.771234 32.637277-79.741277 58.869106z m319.335489-14.946042c7.124426 0 24.837447 11.89583 42.201873 38.236596 18.628085 28.43234 29.30383 62.464 29.30383 93.249361V291.861787c0 19.978894-12.331574 37.321532-26.384341 37.321532a18.737021 18.737021 0 0 1-8.889191-2.287659v-85.493107h-0.087149c-1.002213-14.336-12.505872-25.447489-26.384341-25.512851-13.922043 0-25.491064 11.329362-26.427915 25.491064h-0.043574V315.588085l-1.590468 20.828596c-1.372596 18.562723-13.246638 33.704851-26.515064 33.704851-5.882553 0-11.917617-3.268085-16.689021-8.714894v-92.465021c-0.043574-15.12034-11.89583-27.342979-26.536851-27.386553-14.597447 0.065362-26.427915 12.288-26.47149 27.386553v81.353532l-1.982638 9.499234c-3.268085 15.817532-14.248851 27.713362-25.425702 27.713362-7.625532 0-15.251064-5.403234-20.414638-14.18349l-0.849703-91.724255v-34.489191c0-13.377362-10.610383-24.379915-23.552-24.379915h-5.730042c-13.006979 0-23.573787 11.002553-23.573787 24.379915V522.414298l-0.152511 9.717106c0 20.588936-14.466723 37.25617-32.354043 37.25617-17.865532 0-32.332255-16.710809-32.332255-37.25617l1.154724-267.547234c0.065362-0.806128 0.087149-1.634043 0.087149-2.461957v-106.147404c-0.217872-13.660596-10.087489-25.098894-23.181618-26.841873a26.580426 26.580426 0 0 0-28.977021 19.913532l-9.956766 30.001021a36.014298 36.014298 0 0 1-22.985532 15.904681 35.077447 35.077447 0 0 1-27.103319-5.621106c-16.558298-11.50366-20.937532-34.685277-9.84783-51.810043l113.315405-174.145361 0.370383-0.47932 1.394383-2.135149 1.742978-2.679829c1.067574-1.742979 2.222298-3.398809 3.246298-4.684256l0.740766-0.958638 0.544681-1.198298c17.64766-29.151319 24.445277-35.44783 37.844426-35.44783h242.491914v0.174298-0.043574zM343.148936 536.510638c0-15.033191-12.200851-27.234043-27.234042-27.234042H174.297872a27.234043 27.234043 0 0 0 0 54.468085h141.617022c15.033191 0 27.234043-12.200851 27.234042-27.234043zM887.829787 536.510638c0-15.033191-12.200851-27.234043-27.234042-27.234042H718.978723a27.234043 27.234043 0 0 0 0 54.468085h141.617022c15.033191 0 27.234043-12.200851 27.234042-27.234043zM802.772426 798.175319a27.234043 27.234043 0 0 0 0-38.498042l-118.173958-118.195745a27.234043 27.234043 0 0 0-38.51983 38.51983l118.173958 118.173957a27.234043 27.234043 0 0 0 38.51983 0zM253.908426 798.175319a27.234043 27.234043 0 0 0 38.519829 0l118.173958-118.173957a27.234043 27.234043 0 0 0-38.51983-38.51983L253.908426 759.677277a27.234043 27.234043 0 0 0 0 38.498042zM528.340426 896c15.033191 0 27.234043-12.200851 27.234042-27.234043v-141.617021a27.234043 27.234043 0 0 0-54.468085 0v141.617021C501.106383 883.799149 513.307234 896 528.340426 896z"  horiz-adv-x="1024" />
      
      <glyph glyph-name="anniubeifen" unicode="&#59014;" d="M896 681.984a64 64 0 0 0 64-64v-464a64 64 0 0 0-64-64H128a64 64 0 0 0-64 64v464a64 64 0 0 0 64 64z m-8-72H136v-448h752v448zM640 512l73.6-96c6.4-6.4 12.8-12.8 19.2-22.4 4.8-7.232 7.808-14.4 11.712-20.224l4.288-5.376v140.8h51.2v-256h-25.6l-83.2 108.8a147.968 147.968 0 0 0-17.536 21.632L668.8 390.4l-19.2 28.8v-160h-51.2V512H640zM576 512v-48H512v-204.8h-54.4v204.8h-64V512H576zM224 512h78.912A42.88 42.88 0 0 0 320 508.8c6.4-3.2 12.8-6.4 19.2-12.8 3.2-6.4 9.6-12.8 12.8-22.4 2.368-7.232 4.8-14.4 5.824-21.632l0.576-7.168v-12.8c0-6.4-3.2-9.6-3.2-12.8-3.2-3.2-3.2-6.4-6.4-9.6 0-3.2-3.2-3.2-6.4-6.4 3.2-3.2 9.6-6.4 12.8-9.6 6.4-6.4 9.6-9.6 12.8-16 3.2-3.2 3.2-9.6 6.4-16s3.2-16 3.2-22.4c0-12.8-3.2-22.4-6.4-32-3.2-9.6-9.6-19.2-16-25.6-6.4-6.4-12.8-12.8-22.4-16-7.168-2.368-14.4-4.8-21.632-5.824l-7.168-0.576H224V512z m73.6-144h-25.6v-64h25.6c6.4 0 9.6 3.2 12.8 3.2 3.2 3.2 6.4 3.2 9.6 6.4 2.112 2.112 2.816 4.288 4.032 6.4l2.368 3.2c0 3.2 3.2 9.6 3.2 9.6 0 12.8-3.2 19.2-9.6 25.6-6.4 6.4-12.8 9.6-22.4 9.6zM288 467.2h-16v-51.2h19.84c4.992 0.256 9.6 1.28 12.16 6.4 3.2 3.2 6.4 9.6 6.4 19.2s0 16-6.4 19.2a24.448 24.448 0 0 1-16 6.4z"  horiz-adv-x="1024" />
      
      <glyph glyph-name="download" unicode="&#58993;" d="M512 810.6496c23.552 0 42.6496-19.0976 42.6496-42.6496v-408.9856l140.4928 140.4928a42.6496 42.6496 0 1 0 60.3648-60.3136l-213.3504-213.3504a42.6496 42.6496 0 0 0-60.3136 0L268.4928 439.1936a42.6496 42.6496 0 0 0 60.3136 60.3136l140.544-140.4928V768c0 23.552 19.0976 42.6496 42.6496 42.6496z m-384-512c23.552 0 42.6496-19.0976 42.6496-42.6496v-170.6496a42.6496 42.6496 0 0 1 42.7008-42.7008h597.2992a42.6496 42.6496 0 0 1 42.7008 42.7008V256a42.6496 42.6496 0 0 0 85.2992 0v-170.6496a128 128 0 0 0-128-128H213.3504a128 128 0 0 0-128 128V256c0 23.552 19.0976 42.6496 42.6496 42.6496z"  horiz-adv-x="1024" />
      
      <glyph glyph-name="form-total1" unicode="&#58989;" d="M749.93559 53.326769v-64H280.628513v64h469.307077zM909.955282 757.366154v-618.653539H120.608821V757.326769h789.346461z m-64-64H184.608821v-490.653539h661.346461V693.326769zM387.282051 476.947692v-149.346461H323.282051V476.947692H387.282051z m159.980308 85.307077v-234.653538h-64V562.254769h64z m160.019692-64v-170.653538H643.282051V498.215385h64z"  horiz-adv-x="1109" />
      
      <glyph glyph-name="today-add" unicode="&#58991;" d="M96.554667 290.56h85.418666V-42.666667H96.554667v333.226667zM337.92 397.354667h85.418667V-42.666667H337.92V397.354667z m241.365333-65.152h85.418667v-373.802667h-85.418667v373.76z m241.365334 190.08h85.418666v-563.882667h-85.418666V522.282667zM160.64 357.845333L118.997333 406.954667 372.053333 616.277333l39.509334 1.066667 203.989333-155.904 232.832 318.293333 51.242667-37.418666-252.032-346.026667-44.842667-6.4-210.389333 161.28-231.765334-193.322667zM927.445333 746.581333q0-3.157333-0.298666-6.272-0.298667-3.157333-0.938667-6.229333-0.597333-3.072-1.536-6.101333-0.853333-2.986667-2.133333-5.930667-1.152-2.901333-2.645334-5.674667t-3.242666-5.376q-1.749333-2.645333-3.754667-5.077333-2.005333-2.432-4.224-4.650667-2.218667-2.218667-4.650667-4.224-2.432-2.005333-5.034666-3.754666-2.645333-1.706667-5.418667-3.2-2.773333-1.493333-5.674667-2.688-2.901333-1.237333-5.930666-2.133334-2.986667-0.938667-6.101334-1.536-3.072-0.597333-6.229333-0.938666-3.114667-0.298667-6.272-0.298667t-6.272 0.298667q-3.114667 0.341333-6.229333 0.938666-3.072 0.597333-6.101334 1.536-2.986667 0.896-5.888 2.133334-2.944 1.194667-5.717333 2.688-2.773333 1.450667-5.376 3.2-2.602667 1.749333-5.077333 3.754666-2.432 2.005333-4.650667 4.266667-2.218667 2.176-4.224 4.608-1.962667 2.432-3.712 5.077333-1.749333 2.602667-3.242667 5.376-1.493333 2.773333-2.688 5.674667-1.237333 2.944-2.133333 5.973333-0.896 2.986667-1.536 6.058667-0.597333 3.072-0.896 6.229333-0.341333 3.114667-0.341333 6.272t0.341333 6.272q0.298667 3.157333 0.896 6.229334 0.64 3.072 1.536 6.101333 0.896 2.986667 2.133333 5.930667 1.194667 2.901333 2.688 5.674666t3.242667 5.418667q1.706667 2.56 3.712 5.034667 2.005333 2.432 4.266667 4.693333 2.176 2.176 4.608 4.181333 2.474667 2.005333 5.077333 3.754667 2.602667 1.706667 5.376 3.242667 2.773333 1.450667 5.717333 2.688 2.901333 1.194667 5.888 2.133333 2.986667 0.853333 6.101334 1.493333 3.114667 0.64 6.229333 0.938667 3.114667 0.298667 6.272 0.298667t6.272-0.298667q3.157333-0.298667 6.229333-0.938667 3.114667-0.597333 6.101334-1.536 2.986667-0.896 5.930666-2.133333 2.901333-1.194667 5.674667-2.645333 2.773333-1.493333 5.418667-3.242667 2.602667-1.749333 5.034666-3.754667 2.432-2.005333 4.693334-4.224 2.176-2.218667 4.181333-4.693333 2.005333-2.389333 3.754667-4.992 1.749333-2.645333 3.242666-5.418667 1.493333-2.773333 2.688-5.674666 1.194667-2.901333 2.133334-5.930667 0.853333-2.986667 1.493333-6.101333 0.64-3.072 0.938667-6.229334 0.298667-3.114667 0.298666-6.272z"  horiz-adv-x="1024" />
      
      <glyph glyph-name="form-be-see" unicode="&#58992;" d="M512 253.098667c81.621333 0 157.610667 42.282667 229.546667 130.901333-72.021333 88.618667-147.925333 130.901333-229.546667 130.901333-81.578667 0-157.610667-42.282667-229.504-130.901333 71.893333-88.618667 147.925333-130.901333 229.546667-130.901333z m0-62.293334c-105.301333 0-201.386667 53.589333-288.512 160.682667a51.370667 51.370667 0 0 0 0 64.896C310.613333 523.605333 406.698667 577.28 512 577.28s201.386667-53.632 288.512-160.725333a51.370667 51.370667 0 0 0 0-64.896c-87.125333-107.221333-183.210667-160.853333-288.512-160.853334zM512 356.010667a27.946667 27.946667 0 1 1 0 55.978666 27.946667 27.946667 0 1 1 0-55.978666z m0-71.893334c-35.712 0-68.693333 18.986667-86.613333 49.92a99.626667 99.626667 0 0 0 0 99.84 100.053333 100.053333 0 0 0 186.624-49.962666c0-55.125333-44.8-99.84-100.010667-99.84zM136.021333 7.978667V151.04a35.968 35.968 0 1 1-72.021333 0v-155.008c0-33.066667 26.88-59.989333 59.989333-59.989333H279.04a35.968 35.968 0 1 1 0 72.021333H136.021333z m0 752h142.976a35.968 35.968 0 1 1 0 72.021333H123.989333C90.88 832 64 805.12 64 772.010667V616.96a35.968 35.968 0 1 1 72.021333 0V759.978667z m752 0v-142.976a35.968 35.968 0 1 1 71.978667 0V772.010667c0 33.109333-26.88 59.989333-59.989333 59.989333H744.96a35.968 35.968 0 1 1 0-72.021333h143.018667z m0-752H744.96a35.968 35.968 0 1 1 0-71.978667h155.008c33.066667 0 59.989333 26.88 59.989333 59.989333V151.04a35.968 35.968 0 1 1-72.021333 0v-143.018667z"  horiz-adv-x="1024" />
      
      <glyph glyph-name="form-total" unicode="&#58988;" d="M749.93559 53.326769v-64H280.628513v64h469.307077zM909.955282 757.366154v-618.653539H120.608821V757.326769h789.346461z m-64-64H184.608821v-490.653539h661.346461V693.326769zM387.282051 476.947692v-149.346461H323.282051V476.947692H387.282051z m159.980308 85.307077v-234.653538h-64V562.254769h64z m160.019692-64v-170.653538H643.282051V498.215385h64z"  horiz-adv-x="1109" />
      
      <glyph glyph-name="nail-fixed" unicode="&#59295;" d="M334.72 283.84L127.36 491.264l85.12 85.184L390.016 504.96l275.968 214.4-72.32 72.32L678.912 876.8l82.944-82.88 0.192 0.128L928 628.16l-0.192-0.256 82.944-82.944-85.12-85.184-72.32 72.256L638.848 256l71.488-177.408-85.12-85.184-207.488 207.36-255.36-255.296-82.944 82.944 255.36 255.36z"  horiz-adv-x="1024" />
      
      <glyph glyph-name="share-blog" unicode="&#58985;" d="M0 896m93.090909 0l837.818182 0q93.090909 0 93.090909-93.090909l0-837.818182q0-93.090909-93.090909-93.090909l-837.818182 0q-93.090909 0-93.090909 93.090909l0 837.818182q0 93.090909 93.090909 93.090909ZM735.790545 376.017455q17.92-13.940364 25.204364-33.512728 7.307636-19.549091 5.981091-40.797091-1.326545-21.224727-9.309091-42.449454-7.936-21.248-20.549818-38.493091-22.574545-31.185455-51.083636-53.061818-28.532364-21.876364-59.04291-36.491637-30.510545-14.592-61.370181-22.900363-30.836364-8.285091-58.042182-12.264728-27.205818-3.956364-48.756364-4.980363-21.573818-0.977455-33.512727-0.977455-11.938909 0-31.837091 1.629091-19.898182 1.675636-44.125091 6.656-24.203636 4.980364-50.734545 13.940364-26.530909 8.936727-51.758546 23.552-25.204364 14.592-48.104727 35.816727-22.877091 21.224727-38.795636 51.083636-10.635636 19.246545-14.266182 41.12291-3.653818 21.899636-3.653818 55.738181 0 14.592 4.980363 33.163637 4.957091 18.571636 17.570909 41.146182 12.613818 22.551273 34.490182 49.082181 21.899636 26.530909 55.738182 58.391273 33.163636 31.185455 68.654545 55.389091 35.490909 24.203636 75.962182 37.469091 18.594909 6.656 41.146182 7.307636 22.551273 0.674909 37.143273-7.307636 6.632727-7.284364 12.613818-14.894546 5.957818-7.656727 7.959273-18.920727 1.978182-9.309091 0.325818-17.92-1.652364-8.610909-3.653818-17.245091-1.978182-8.610909-3.304728-16.593454-1.326545-7.959273 1.326546-14.592 11.264-1.326545 21.876363 1.000727 10.635636 2.327273 20.573091 5.957818 9.960727 3.653818 20.247273 7.633455 10.263273 3.979636 21.550546 5.981091 17.92 3.304727 35.490909 2.978909 17.594182-0.325818 31.837091-4.980364 14.266182-4.654545 23.552-14.266182 9.309091-9.611636 11.287272-24.878545 1.326545-9.285818-1.326545-17.221818-2.653091-7.982545-5.632-14.941091-3.002182-6.981818-4.654546-14.266182-1.652364-7.307636 1.000728-15.266909 1.978182-4.654545 9.611636-8.610909 7.633455-3.979636 17.594182-7.959273 9.937455-4.002909 20.898909-8.634182 10.938182-4.654545 18.897454-10.612363z m-167.191272-206.336q17.268364 10.612364 34.839272 29.207272 17.570909 18.571636 28.532364 41.448728 10.938182 22.900364 12.264727 49.105454 1.326545 26.205091-13.265454 52.736-12.613818 21.876364-30.836364 37.143273-18.245818 15.266909-40.820363 24.203636-22.551273 8.983273-48.081455 12.962909-25.553455 3.956364-52.084364 3.956364-51.083636 0-90.554181-10.589091-39.470545-10.612364-68.328728-27.880727-28.858182-17.221818-46.778182-39.121455-17.92-21.899636-25.204363-44.450909-7.307636-21.899636-4.328727-43.473454 3.002182-21.550545 13.614545-40.797091 10.612364-19.223273 27.531636-34.490182 16.919273-15.266909 37.469091-24.552727 37.818182-16.570182 77.288728-20.89891 39.493818-4.305455 75.310545-0.325818 35.84 3.979636 65.349818 13.940364 29.509818 9.937455 48.081455 21.876364zM481.698909 379.345455q13.265455-5.306182 25.204364-11.93891 11.938909-6.632727 21.248-17.92 6.632727-7.959273 11.589818-19.898181 4.980364-11.938909 6.981818-25.530182 1.978182-13.591273 1.000727-27.531637-1.000727-13.940364-6.306909-25.204363-5.306182-11.938909-12.939636-24.203637-7.633455-12.288-18.571636-22.900363-10.938182-10.612364-26.205091-18.920727-15.266909-8.285091-37.166546-12.264728-39.796364-7.307636-76.288 7.284364-36.491636 14.615273-57.041454 48.430545-7.982545 25.879273-8.634182 45.777455-0.674909 19.921455 10.612363 43.124364 8.610909 17.92 26.205091 33.512727 17.570909 15.592727 40.471273 25.204363 22.877091 9.611636 48.756364 11.287273 25.879273 1.652364 51.083636-8.308363z m-105.472-163.188364q24.529455-2.001455 37.469091 11.938909t13.940364 31.185455q1.000727 17.221818-9.960728 30.836363-10.938182 13.614545-34.164363 10.938182-17.92-1.978182-27.857455-15.243636-9.960727-13.265455-11.287273-28.206546-1.326545-14.894545 6.30691-27.531636 7.633455-12.590545 25.553454-13.917091zM647.563636 707.723636q48.407273 0 90.530909-12.939636 42.146909-12.939636 73.658182-37.469091 31.511273-24.552727 49.431273-59.717818 17.92-35.141818 17.92-79.592727 0-21.899636-10.635636-32.861091-10.612364-10.938182-22.877091-11.264-12.264727-0.349091-22.900364 9.285818-10.612364 9.611636-10.612364 29.509818 0 26.530909-14.592 50.432-14.592 23.877818-38.469818 41.797818t-54.737454 28.183273q-30.836364 10.286545-62.696728 10.286545-20.573091 0-30.510545 9.960728-9.960727 9.937455-9.309091 22.225454 0.698182 12.264727 12.288 22.202182 11.636364 9.960727 33.512727 9.960727z m0-106.146909q61.672727 0 93.556364-31.511272 31.813818-31.511273 31.813818-95.185455 0-19.921455-6.632727-28.206545-6.632727-8.308364-14.592-7.307637-7.959273 1.000727-14.592 9.634909-6.632727 8.610909-6.632727 23.202909 0 39.144727-22.574546 62.370909-22.528 23.226182-60.346182 23.226182-12.613818 0-18.571636 6.958546-5.981091 6.981818-5.981091 14.917818 0 7.959273 6.283636 14.941091 6.330182 6.958545 18.269091 6.958545z"  horiz-adv-x="1024" />
      
      <glyph glyph-name="share-wechat" unicode="&#58986;" d="M0 896m93.090909 0l837.818182 0q93.090909 0 93.090909-93.090909l0-837.818182q0-93.090909-93.090909-93.090909l-837.818182 0q-93.090909 0-93.090909 93.090909l0 837.818182q0 93.090909 93.090909 93.090909ZM639.883636 504.482909c8.424727 0 16.709818-0.605091 24.925091-1.489454-22.365091 103.144727-133.841455 179.805091-261.073454 179.80509-142.266182 0-258.792727-95.953455-258.792728-217.786181 0-70.306909 38.772364-128.069818 103.563637-172.846546l-25.902546-77.056 90.461091 44.916364c32.395636-6.353455 58.344727-12.869818 90.670546-12.869818 8.098909 0 16.151273 0.395636 24.133818 1.024a188.602182 188.602182 0 0 0-7.982546 53.643636c0 111.872 97.070545 202.658909 219.997091 202.658909z m-139.101091 69.445818c19.479273 0 32.372364-12.706909 32.372364-31.976727 0-19.176727-12.893091-32.046545-32.372364-32.046545-19.432727 0-38.865455 12.869818-38.865454 32.046545 0 19.269818 19.456 31.976727 38.865454 31.976727z m-181.131636-64c-19.409455 0-38.981818 12.846545-38.981818 32.023273 0 19.269818 19.572364 31.976727 38.981818 31.976727 19.386182 0 32.302545-12.706909 32.302546-31.976727 0-19.176727-12.916364-32.046545-32.302546-32.046545z m556.450909-205.032727c0 102.4-103.540364 185.832727-219.810909 185.832727-123.112727 0-220.090182-83.456-220.090182-185.832727 0-102.539636 96.954182-185.809455 220.090182-185.809455 25.762909 0 51.758545 6.4 77.637818 12.823273l70.981818-38.469818-19.479272 64c51.968 38.562909 90.670545 89.716364 90.670545 147.456z m-291.188363 32.046545c-12.869818 0-25.879273 12.683636-25.879273 25.623273 0 12.776727 13.009455 25.6 25.879273 25.6 19.572364 0 32.395636-12.823273 32.395636-25.6 0-12.939636-12.823273-25.6-32.395636-25.6z m142.336 0c-12.776727 0-25.693091 12.683636-25.693091 25.623273 0 12.776727 12.916364 25.6 25.693091 25.6 19.409455 0 32.395636-12.823273 32.395636-25.6 0-12.939636-12.986182-25.6-32.395636-25.6z"  horiz-adv-x="1024" />
      
      <glyph glyph-name="share-qzone" unicode="&#58987;" d="M0 896m93.090909 0l837.818182 0q93.090909 0 93.090909-93.090909l0-837.818182q0-93.090909-93.090909-93.090909l-837.818182 0q-93.090909 0-93.090909 93.090909l0 837.818182q0 93.090909 93.090909 93.090909ZM472.948364 261.445818l234.007272-18.897454-7.121454 41.821091 187.810909 184.715636-259.560727 38.050909L512 744.448 395.915636 507.112727 136.354909 469.085091l187.810909-184.715636-44.334545-260.817455L512 146.711273l232.168727-123.159273-36.445091 214.202182-352.046545-15.709091q-17.221818 16.221091 0 35.956364 17.221818 19.665455 239.150545 146.082909L305.105455 443.461818l387.42109 4.631273q13.754182-11.589818 0-27.880727-13.777455-16.128-219.578181-158.766546z m272.477091-22.016l-38.469819 3.118546 0.837819-4.794182 37.632 1.675636z"  horiz-adv-x="1024" />
      
      <glyph glyph-name="sousuo" unicode="&#58984;" d="M676.571 457.143a237.714 237.714 0 1 1-475.428 0 237.714 237.714 0 0 1 475.428 0zM604.6 216.027a292.571 292.571 0 1 0 42.24 35.365l213.687-213.723a27.429 27.429 0 1 0-38.766-38.766L604.599 216.027z"  horiz-adv-x="1024" />
      
      <glyph glyph-name="lock" unicode="&#58983;" d="M822.857143 493.714286h-36.571429V621.714286a274.285714 274.285714 0 1 1-548.571428 0V493.714286h-36.571429A109.714286 109.714286 0 0 1 91.428571 384v-91.428571a420.571429 420.571429 0 0 1 841.142858 0V384a109.714286 109.714286 0 0 1-109.714286 109.714286z m-475.428572 128a164.571429 164.571429 0 0 0 329.142858 0V493.714286h-329.142858V621.714286zM548.571429 164.571429a36.571429 36.571429 0 0 0-73.142858 0V310.857143a36.571429 36.571429 0 0 0 73.142858 0v-146.285714z"  horiz-adv-x="1024" />
      
      <glyph glyph-name="warning" unicode="&#58982;" d="M449.194667 798.606222a128 128 0 0 0 172.259555-45.169778l0.113778-0.227555 361.358222-603.306667 0.398222-0.568889A128 128 0 0 0 873.813333-42.666667h-0.455111H150.129778a128 128 0 0 0-109.397334 192l0.341334 0.568889 361.472 603.591111c11.377778 18.773333 27.477333 34.304 46.648889 45.112889zM512 729.770667a42.666667 42.666667 0 0 1-36.408889-20.48L114.460444 106.382222a42.666667 42.666667 0 0 1 36.408889-63.715555h722.261334a42.666667 42.666667 0 0 1 36.408889 63.715555L548.465778 709.176889v0.113778A42.666667 42.666667 0 0 1 512 729.770667zM512 554.666667a42.666667 42.666667 0 0 0 42.666667-42.666667v-170.666667a42.666667 42.666667 0 1 0-85.333334 0v170.666667A42.666667 42.666667 0 0 0 512 554.666667z m-42.666667-384A42.666667 42.666667 0 0 0 512 213.333333h0.455111a42.666667 42.666667 0 0 0 0-85.333333H512a42.666667 42.666667 0 0 0-42.666667 42.666667z"  horiz-adv-x="1024" />
      
      <glyph glyph-name="edu-img-radio" unicode="&#58976;" d="M933.312 64V704q0 41.984-29.632 71.68-29.696 29.632-71.68 29.632H192q-41.984 0-71.68-29.632-29.632-29.696-29.632-71.68v-640q0-41.984 29.632-71.68 29.696-29.632 71.68-29.632h640q41.984 0 71.68 29.632 29.632 29.696 29.632 71.68zM850.88 722.88q7.808-7.808 7.808-18.88v-640q0-11.072-7.808-18.88t-18.88-7.808H192q-11.072 0-18.88 7.808T165.312 64V704q0 11.072 7.808 18.88T192 730.688h640q11.072 0 18.88-7.808zM528 512q0-7.04-0.704-14.08t-2.112-14.08q-1.344-6.912-3.392-13.632-2.048-6.784-4.8-13.312-2.688-6.528-6.016-12.8-3.328-6.208-7.296-12.16-3.84-5.824-8.384-11.328-4.48-5.44-9.472-10.432-4.992-4.992-10.496-9.472-5.44-4.48-11.328-8.448-5.888-3.904-12.16-7.232-6.208-3.392-12.8-6.08-6.464-2.688-13.248-4.736-6.784-2.048-13.696-3.456-6.976-1.344-14.016-2.048T384 368q-7.04 0-14.08 0.64-7.04 0.768-14.08 2.112-6.912 1.408-13.632 3.456-6.784 2.048-13.312 4.736-6.528 2.688-12.8 6.08-6.208 3.328-12.16 7.232-5.824 3.904-11.328 8.448-5.44 4.48-10.432 9.472-4.992 4.992-9.536 10.432-4.48 5.504-8.384 11.392-3.968 5.888-7.296 12.16-3.328 6.208-6.016 12.736-2.688 6.528-4.736 13.312-2.112 6.72-3.456 13.696-1.408 6.912-2.048 13.952Q240 504.96 240 512q0 7.104 0.64 14.144 0.704 7.04 2.112 14.016 1.344 6.912 3.456 13.696 2.048 6.784 4.736 13.312 2.688 6.528 6.016 12.8 3.328 6.208 7.296 12.096 3.904 5.888 8.384 11.328 4.48 5.504 9.536 10.496 4.992 4.992 10.432 9.472 5.504 4.48 11.392 8.448 5.888 3.904 12.096 7.232 6.272 3.328 12.8 6.08 6.528 2.688 13.312 4.736 6.72 2.048 13.696 3.456 6.912 1.344 13.952 2.048 7.04 0.64 14.08 0.64 7.104 0 14.144-0.64t14.016-2.048q6.912-1.408 13.696-3.456t13.312-4.736q6.528-2.752 12.8-6.08 6.208-3.328 12.096-7.232 5.888-3.968 11.328-8.448 5.504-4.48 10.496-9.472 4.992-4.992 9.472-10.496 4.48-5.44 8.384-11.328 3.968-5.888 7.296-12.16 3.328-6.208 6.016-12.8 2.752-6.464 4.8-13.248 2.048-6.784 3.392-13.696 1.408-6.976 2.112-14.016 0.64-7.04 0.64-14.08zM453.312 512q0 3.392-0.32 6.784t-1.024 6.72q-0.64 3.328-1.664 6.592-0.96 3.264-2.24 6.4-1.28 3.2-2.944 6.208-1.6 2.944-3.52 5.76-1.92 2.88-4.032 5.504-2.176 2.624-4.544 5.056-2.432 2.432-5.12 4.544-2.56 2.176-5.376 4.096-2.88 1.92-5.888 3.456-3.008 1.6-6.144 2.944-3.136 1.28-6.4 2.304-3.2 0.96-6.592 1.6-3.328 0.64-6.72 1.024-3.392 0.32-6.784 0.32-3.456 0-6.848-0.32-3.328-0.32-6.72-1.024-3.328-0.64-6.592-1.6-3.2-1.024-6.4-2.304-3.2-1.28-6.144-2.944-3.008-1.6-5.824-3.456-2.816-1.92-5.504-4.096-2.56-2.112-4.992-4.544-2.432-2.432-4.608-5.056-2.176-2.624-4.032-5.44-1.92-2.88-3.52-5.824-1.6-3.008-2.88-6.208-1.28-3.136-2.304-6.4-0.96-3.2-1.664-6.592-0.64-3.328-0.96-6.72-0.384-3.392-0.384-6.784t0.384-6.784q0.32-3.392 0.96-6.784 0.64-3.328 1.664-6.592 0.96-3.2 2.304-6.4 1.28-3.136 2.88-6.144 1.6-3.008 3.52-5.824t4.032-5.44q2.176-2.688 4.608-5.12 2.368-2.368 4.992-4.48 2.688-2.176 5.504-4.096 2.816-1.92 5.824-3.52T357.44 448q3.2-1.28 6.4-2.304 3.264-0.96 6.592-1.664 3.392-0.64 6.72-0.96 3.392-0.32 6.848-0.32 3.392 0 6.784 0.32t6.72 0.96q3.328 0.64 6.592 1.664t6.4 2.304q3.2 1.28 6.144 2.88 3.008 1.664 5.888 3.52 2.816 1.92 5.44 4.032 2.624 2.176 5.056 4.608 2.368 2.368 4.544 5.056 2.176 2.56 4.032 5.44 1.92 2.816 3.52 5.824t2.944 6.144q1.28 3.2 2.24 6.4 1.024 3.264 1.664 6.592 0.64 3.392 1.024 6.784 0.32 3.392 0.32 6.784zM528 512q0-7.04-0.704-14.08t-2.112-14.08q-1.344-6.912-3.392-13.632-2.048-6.784-4.8-13.312-2.688-6.528-6.016-12.8-3.328-6.208-7.296-12.16-3.84-5.824-8.384-11.328-4.48-5.44-9.472-10.432-4.992-4.992-10.496-9.472-5.44-4.48-11.328-8.448-5.888-3.904-12.16-7.232-6.208-3.392-12.8-6.08-6.464-2.688-13.248-4.736-6.784-2.048-13.696-3.456-6.976-1.344-14.016-2.048T384 368q-7.04 0-14.08 0.64-7.04 0.768-14.08 2.112-6.912 1.408-13.632 3.456-6.784 2.048-13.312 4.736-6.528 2.688-12.8 6.08-6.208 3.328-12.16 7.232-5.824 3.904-11.328 8.448-5.44 4.48-10.432 9.472-4.992 4.992-9.536 10.432-4.48 5.504-8.384 11.392-3.968 5.888-7.296 12.16-3.328 6.208-6.016 12.736-2.688 6.528-4.736 13.312-2.112 6.72-3.456 13.696-1.408 6.912-2.048 13.952Q240 504.96 240 512q0 7.104 0.64 14.144 0.704 7.04 2.112 14.016 1.344 6.912 3.456 13.696 2.048 6.784 4.736 13.312 2.688 6.528 6.016 12.8 3.328 6.208 7.296 12.096 3.904 5.888 8.384 11.328 4.48 5.504 9.536 10.496 4.992 4.992 10.432 9.472 5.504 4.48 11.392 8.448 5.888 3.904 12.096 7.232 6.272 3.328 12.8 6.08 6.528 2.688 13.312 4.736 6.72 2.048 13.696 3.456 6.912 1.344 13.952 2.048 7.04 0.64 14.08 0.64 7.104 0 14.144-0.64t14.016-2.048q6.912-1.408 13.696-3.456t13.312-4.736q6.528-2.752 12.8-6.08 6.208-3.328 12.096-7.232 5.888-3.968 11.328-8.448 5.504-4.48 10.496-9.472 4.992-4.992 9.472-10.496 4.48-5.44 8.384-11.328 3.968-5.888 7.296-12.16 3.328-6.208 6.016-12.8 2.752-6.464 4.8-13.248 2.048-6.784 3.392-13.696 1.408-6.976 2.112-14.016 0.64-7.04 0.64-14.08zM453.312 512q0 3.392-0.32 6.784t-1.024 6.72q-0.64 3.328-1.664 6.592-0.96 3.264-2.24 6.4-1.28 3.2-2.944 6.208-1.6 2.944-3.52 5.76-1.92 2.88-4.032 5.504-2.176 2.624-4.544 5.056-2.432 2.432-5.12 4.544-2.56 2.176-5.376 4.096-2.88 1.92-5.888 3.456-3.008 1.6-6.144 2.944-3.136 1.28-6.4 2.304-3.2 0.96-6.592 1.6-3.328 0.64-6.72 1.024-3.392 0.32-6.784 0.32-3.456 0-6.848-0.32-3.328-0.32-6.72-1.024-3.328-0.64-6.592-1.6-3.2-1.024-6.4-2.304-3.2-1.28-6.144-2.944-3.008-1.6-5.824-3.456-2.816-1.92-5.504-4.096-2.56-2.112-4.992-4.544-2.432-2.432-4.608-5.056-2.176-2.624-4.032-5.44-1.92-2.88-3.52-5.824-1.6-3.008-2.88-6.208-1.28-3.136-2.304-6.4-0.96-3.2-1.664-6.592-0.64-3.328-0.96-6.72-0.384-3.392-0.384-6.784t0.384-6.784q0.32-3.392 0.96-6.784 0.64-3.328 1.664-6.592 0.96-3.2 2.304-6.4 1.28-3.136 2.88-6.144 1.6-3.008 3.52-5.824t4.032-5.44q2.176-2.688 4.608-5.12 2.368-2.368 4.992-4.48 2.688-2.176 5.504-4.096 2.816-1.92 5.824-3.52T357.44 448q3.2-1.28 6.4-2.304 3.264-0.96 6.592-1.664 3.392-0.64 6.72-0.96 3.392-0.32 6.848-0.32 3.392 0 6.784 0.32t6.72 0.96q3.328 0.64 6.592 1.664t6.4 2.304q3.2 1.28 6.144 2.88 3.008 1.664 5.888 3.52 2.816 1.92 5.44 4.032 2.624 2.176 5.056 4.608 2.368 2.368 4.544 5.056 2.176 2.56 4.032 5.44 1.92 2.816 3.52 5.824t2.944 6.144q1.28 3.2 2.24 6.4 1.024 3.264 1.664 6.592 0.64 3.392 1.024 6.784 0.32 3.392 0.32 6.784zM562.944 359.04l-251.52-336.64q-7.424-9.984-7.424-22.4 0-3.648 0.64-7.296 0.768-3.584 2.176-7.04 1.408-3.328 3.456-6.4 2.048-3.072 4.672-5.696 2.56-2.56 5.632-4.608 3.072-2.048 6.4-3.456 3.456-1.408 7.04-2.112 3.648-0.704 7.296-0.704h472.896q48.512 0 70.912 42.944 22.4 43.008-5.312 82.816l-187.2 268.416q-23.36 33.6-64.256 34.24-40.96 0.64-65.408-32.128z m-147.136-321.728h398.4q3.2 0 4.736 2.88 1.472 2.88-0.384 5.504L631.36 314.24q-1.536 2.24-4.288 2.24-2.688 0.064-4.352-2.112l-206.912-276.992z"  horiz-adv-x="1024" />
      
      <glyph glyph-name="edu-select" unicode="&#58977;" d="M298.496 519.68v0.128L512 336.768l213.44 183.04 0.064-0.128q5.76 4.992 12.992 7.68 7.104 2.56 14.72 2.56 4.224 0 8.32-0.768 4.096-0.832 8-2.432 3.84-1.6 7.36-3.968 3.456-2.304 6.4-5.248 3.008-3.008 5.312-6.464 2.368-3.52 3.968-7.36 1.6-3.84 2.368-8 0.832-4.096 0.832-8.32 0-9.28-3.84-17.728-3.904-8.512-11.008-14.592h0.064l-241.28-206.848q-2.816-2.432-6.08-4.352-3.264-1.92-6.848-3.2-3.52-1.344-7.296-2.048-3.712-0.64-7.488-0.64-3.84 0-7.488 0.64-3.776 0.64-7.296 1.984-3.584 1.28-6.848 3.2-3.2 1.92-6.144 4.48l-241.28 206.72 0.128 0.064q-7.04 6.08-10.944 14.592-3.904 8.448-3.904 17.728 0 4.224 0.832 8.32 0.768 4.096 2.368 8 1.6 3.84 3.968 7.36 2.304 3.456 5.312 6.4 2.944 3.008 6.4 5.312 3.52 2.368 7.36 3.968 3.84 1.6 8 2.432 4.096 0.768 8.32 0.768 7.616 0 14.72-2.56 7.168-2.688 12.992-7.68z"  horiz-adv-x="1024" />
      
      <glyph glyph-name="checked" unicode="&#58978;" d="M640 730.56q3.712 0 7.296 0.704 3.648 0.704 7.04 2.176 3.392 1.408 6.464 3.456 3.072 2.048 5.696 4.608 2.56 2.624 4.608 5.696 2.048 3.072 3.456 6.464 1.472 3.392 2.176 7.04 0.704 3.584 0.704 7.296t-0.704 7.296q-0.704 3.648-2.176 7.04-1.408 3.392-3.456 6.464-2.048 3.072-4.608 5.696-2.624 2.56-5.696 4.608-3.072 2.048-6.464 3.456-3.392 1.472-7.04 2.176-3.584 0.704-7.296 0.704l-2.816-0.128H192q-41.984 0-71.68-29.632-29.632-29.696-29.632-71.68v-640q0-41.984 29.632-71.68 29.696-29.632 71.68-29.632h640q41.984 0 71.68 29.632 29.632 29.696 29.632 71.68V466.56q0.128 1.344 0.128 2.752 0 3.712-0.704 7.296-0.704 3.648-2.176 7.04-1.408 3.392-3.456 6.464-2.048 3.072-4.608 5.696-2.624 2.56-5.696 4.672-3.072 2.048-6.464 3.456-3.392 1.408-7.04 2.112-3.584 0.704-7.296 0.704t-7.296-0.64q-3.648-0.768-7.04-2.176-3.392-1.408-6.464-3.456-3.072-2.048-5.696-4.672-2.56-2.56-4.608-5.696-2.048-3.072-3.456-6.4-1.472-3.456-2.176-7.04-0.704-3.648-0.704-7.36l0.128-2.816V64q0-11.072-7.808-18.88t-18.88-7.808H192q-11.072 0-18.88 7.808T165.312 64V704q0 11.072 7.808 18.88T192 730.688h445.184l2.816-0.128zM903.36 722.688q4.224 4.992 6.464 11.2 2.24 6.208 2.24 12.8 0 3.648-0.64 7.296-0.768 3.584-2.176 7.04-1.408 3.392-3.456 6.4-2.048 3.072-4.672 5.76-2.56 2.56-5.696 4.608-3.072 2.048-6.4 3.456-3.456 1.408-7.04 2.112-3.648 0.768-7.36 0.768-4.8 0-9.472-1.28-4.672-1.216-8.896-3.584-4.224-2.368-7.68-5.76-3.456-3.328-5.952-7.424L547.2 352.448 366.848 496.64q-5.184 4.864-11.84 7.424-6.592 2.624-13.696 2.624-3.712 0-7.296-0.704-3.648-0.704-7.04-2.112-3.392-1.408-6.464-3.456-3.072-2.048-5.696-4.672-2.56-2.56-4.608-5.696-2.048-3.072-3.456-6.464-1.472-3.392-2.176-7.04-0.704-3.584-0.704-7.296 0-4.544 1.088-8.96 1.088-4.48 3.2-8.512 2.176-4.032 5.248-7.424 3.008-3.456 6.784-6.016l211.136-168.896 1.6-1.28q6.08-4.288 13.312-5.952 7.232-1.664 14.528-0.448 7.36 1.28 13.632 5.12 6.336 3.968 10.624 9.984l318.336 445.76z"  horiz-adv-x="1024" />
      
      <glyph glyph-name="right" unicode="&#58979;" d="M207.104 356.3008l177.0496-143.5136 440.7808 413.1328q29.5424 27.4432 55.3984 5.9904c7.68-6.4 16.5376-24.6784-3.4304-53.3504L416.6656 30.208q-35.2768-49.152-77.1584 0.512l-198.6048 272.7936q-23.552 36.9664 5.9392 59.0848c9.984 7.424 32.5632 18.9952 60.2624-6.2464z"  horiz-adv-x="1024" />
      
      <glyph glyph-name="edu-judge" unicode="&#58981;" d="M864-64h-704C108.8-64 64-19.2 64 32v704C64 787.2 108.8 832 160 832h704c51.2 0 96-44.8 96-96v-704c0-51.2-44.8-96-96-96zM160 768c-19.2 0-32-12.8-32-32v-704c0-19.2 12.8-32 32-32h704c19.2 0 32 12.8 32 32v704c0 19.2-12.8 32-32 32h-704zM518.4 614.4l-51.2 51.2-121.6-115.2-70.4 70.4-51.2-51.2L345.6 448l172.8 166.4z m204.8-320l-57.6-51.2-57.6 57.6-51.2-57.6 57.6-51.2-57.6-64 51.2-51.2 57.6 57.6 57.6-57.6 51.2 51.2-51.2 64 57.6 57.6-57.6 44.8z m-460.8-108.8l448 448 51.2-51.2-448-448-51.2 51.2z"  horiz-adv-x="1024" />
      
      <glyph glyph-name="search-share" unicode="&#58961;" d="M724.992 661.162667a35.498667 35.498667 0 0 0-13.994667-46.648889l-1.877333-1.024L422.684444 470.300444c8.704-22.072889 13.084444-45.511111 13.084445-69.290666 0-21.959111-3.754667-43.064889-10.638222-62.691556l251.619555-140.913778a148.024889 148.024889 0 1 0-26.510222-66.56L389.461333 276.878222a189.44 189.44 0 1 0-4.949333 253.724445l292.807111 146.432a35.498667 35.498667 0 0 0 47.672889-15.928889z m71.907556-473.258667a76.970667 76.970667 0 1 1 0-153.941333 76.970667 76.970667 0 0 1 0 153.941333zM246.328889 519.452444a118.385778 118.385778 0 1 1 0-236.828444 118.385778 118.385778 0 0 1 0 236.828444zM808.732444 839.111111a148.024889 148.024889 0 1 1 0-295.992889 148.024889 148.024889 0 0 1 0 295.992889z m0-71.054222a76.970667 76.970667 0 1 0 0-153.884445 76.970667 76.970667 0 0 0 0 153.884445z"  horiz-adv-x="1080" />
      
      <glyph glyph-name="qrcode" unicode="&#58897;" d="M404.2752 704a37.376 37.376 0 0 0 37.3248-37.376v-149.2992a37.376 37.376 0 0 0-37.376-37.3248H254.976a37.376 37.376 0 0 0-37.3248 37.376V666.624a37.376 37.376 0 0 0 37.376 37.3248h149.2992z m0 64H254.9248A101.4272 101.4272 0 0 1 153.6 666.624v-149.2992a101.4272 101.4272 0 0 1 101.376-101.3248h149.2992a101.4272 101.4272 0 0 1 101.3248 101.376V666.624A101.4272 101.4272 0 0 1 404.224 768z m416-64a37.376 37.376 0 0 0 37.3248-37.376v-149.2992a37.376 37.376 0 0 0-37.376-37.3248h-149.2992a37.376 37.376 0 0 0-37.3248 37.376V666.624a37.376 37.376 0 0 0 37.376 37.3248h149.2992z m0 64h-149.3504a101.4272 101.4272 0 0 1-101.3248-101.376v-149.2992a101.4272 101.4272 0 0 1 101.376-101.3248h149.2992a101.4272 101.4272 0 0 1 101.3248 101.376V666.624A101.4272 101.4272 0 0 1 820.224 768z m-416-480a37.376 37.376 0 0 0 37.3248-37.376v-149.2992a37.376 37.376 0 0 0-37.376-37.3248H254.976a37.376 37.376 0 0 0-37.3248 37.376v149.2992a37.376 37.376 0 0 0 37.376 37.3248h149.2992z m0 64H254.9248a101.4272 101.4272 0 0 1-101.3248-101.376v-149.2992A101.4272 101.4272 0 0 1 254.976 0h149.2992a101.4272 101.4272 0 0 1 101.3248 101.376v149.2992a101.4272 101.4272 0 0 1-101.376 101.3248zM361.6256 591.9744q0-3.1232-0.6656-6.1952-0.6144-3.072-1.792-6.0416-1.2288-2.9184-2.9696-5.5296-1.7408-2.56-3.9936-4.8128-2.2016-2.2528-4.8128-3.9936-2.6112-1.7408-5.5296-2.9696-2.9184-1.1776-6.0416-1.792-3.072-0.6656-6.2464-0.6656-3.1232 0-6.1952 0.6656-3.072 0.6144-6.0416 1.792-2.9184 1.2288-5.5296 2.9696-2.56 1.7408-4.8128 3.9936-2.2528 2.2016-3.9936 4.8128-1.7408 2.6112-2.9696 5.5296-1.1776 2.9184-1.792 6.0416-0.6656 3.072-0.6656 6.2464 0 3.1232 0.6656 6.1952 0.6144 3.072 1.792 6.0416 1.2288 2.9184 2.9696 5.5296 1.7408 2.56 3.9936 4.8128 2.2016 2.2528 4.8128 3.9936 2.6112 1.7408 5.5296 2.9696 2.9184 1.1776 6.0416 1.792 3.072 0.6656 6.2464 0.6656 3.1232 0 6.1952-0.6656 3.072-0.6144 6.0416-1.792 2.9184-1.2288 5.5296-2.9696 2.56-1.7408 4.8128-3.9936 2.2528-2.2016 3.9936-4.8128 1.7408-2.6112 2.9696-5.5296 1.1776-2.9184 1.792-6.0416 0.6656-3.072 0.6656-6.2464zM361.6256 175.9744q0-3.1232-0.6656-6.1952-0.6144-3.072-1.792-6.0416-1.2288-2.9184-2.9696-5.5296-1.7408-2.56-3.9936-4.8128-2.2016-2.2528-4.8128-3.9936-2.6112-1.7408-5.5296-2.9696-2.9184-1.1776-6.0416-1.792-3.072-0.6144-6.2464-0.6144-3.1232 0-6.1952 0.6144t-6.0416 1.792q-2.9184 1.2288-5.5296 2.9696-2.56 1.7408-4.8128 3.9936-2.2528 2.2016-3.9936 4.8128-1.7408 2.6112-2.9696 5.5296-1.1776 2.9184-1.792 6.0416-0.6656 3.072-0.6656 6.1952 0 3.1744 0.6656 6.2464 0.6144 3.072 1.792 6.0416 1.2288 2.9184 2.9696 5.5296 1.7408 2.56 3.9936 4.8128 2.2016 2.2528 4.8128 3.9936 2.6112 1.7408 5.5296 2.9696 2.9184 1.1776 6.0416 1.792 3.072 0.6144 6.2464 0.6144 3.1232 0 6.1952-0.6144t6.0416-1.792q2.9184-1.2288 5.5296-2.9696 2.56-1.7408 4.8128-3.9936 2.2528-2.2016 3.9936-4.8128 1.7408-2.6112 2.9696-5.5296 1.1776-2.9184 1.792-6.0416 0.6656-3.072 0.6656-6.1952zM777.6256 591.9744q0-3.1232-0.6656-6.1952-0.6144-3.072-1.792-6.0416-1.2288-2.9184-2.9696-5.5296-1.7408-2.56-3.9936-4.8128-2.2016-2.2528-4.8128-3.9936-2.6112-1.7408-5.5296-2.9696-2.9184-1.1776-6.0416-1.792-3.072-0.6656-6.1952-0.6656-3.1744 0-6.2464 0.6656-3.072 0.6144-6.0416 1.792-2.9184 1.2288-5.5296 2.9696-2.56 1.7408-4.8128 3.9936-2.2528 2.2016-3.9936 4.8128-1.7408 2.6112-2.9696 5.5296-1.1776 2.9184-1.792 6.0416-0.6144 3.072-0.6144 6.2464 0 3.1232 0.6144 6.1952t1.792 6.0416q1.2288 2.9184 2.9696 5.5296 1.7408 2.56 3.9936 4.8128 2.2016 2.2528 4.8128 3.9936 2.6112 1.7408 5.5296 2.9696 2.9184 1.1776 6.0416 1.792 3.072 0.6656 6.1952 0.6656 3.1744 0 6.2464-0.6656 3.072-0.6144 6.0416-1.792 2.9184-1.2288 5.5296-2.9696 2.56-1.7408 4.8128-3.9936 2.2528-2.2016 3.9936-4.8128 1.7408-2.6112 2.9696-5.5296 1.1776-2.9184 1.792-6.0416 0.6144-3.072 0.6144-6.2464zM921.6 32q0-3.1744-0.6144-6.2464t-1.8432-5.9904q-1.1776-2.9184-2.9184-5.5296-1.792-2.6112-3.9936-4.864-2.2528-2.2016-4.864-3.9936-2.6112-1.7408-5.5296-2.9184-2.9184-1.2288-5.9904-1.8432-3.072-0.6144-6.2464-0.6144t-6.2464 0.6144q-3.072 0.6144-5.9904 1.8432-2.9184 1.1776-5.5296 2.9184-2.6112 1.792-4.864 3.9936-2.2016 2.2528-3.9936 4.864-1.7408 2.6112-2.9184 5.5296-1.2288 2.9184-1.8432 5.9904-0.6144 3.072-0.6144 6.2464t0.6144 6.2464q0.6144 3.072 1.8432 5.9904 1.1776 2.9184 2.9184 5.5296 1.792 2.6112 3.9936 4.864 2.2528 2.2016 4.864 3.9936 2.6112 1.7408 5.5296 2.9184 2.9184 1.2288 5.9904 1.8432 3.072 0.6144 6.2464 0.6144t6.2464-0.6144q3.072-0.6144 5.9904-1.8432 2.9184-1.1776 5.5296-2.9184 2.6112-1.792 4.864-3.9936 2.2016-2.2528 3.9936-4.864 1.7408-2.6112 2.9184-5.5296 1.2288-2.9184 1.8432-5.9904 0.6144-3.072 0.6144-6.2464zM793.6 32q0-3.1744-0.6144-6.2464t-1.8432-5.9904q-1.1776-2.9184-2.9184-5.5296-1.792-2.6112-3.9936-4.864-2.2528-2.2016-4.864-3.9936-2.6112-1.7408-5.5296-2.9184-2.9184-1.2288-5.9904-1.8432-3.072-0.6144-6.2464-0.6144t-6.2464 0.6144q-3.072 0.6144-5.9904 1.8432-2.9184 1.1776-5.5296 2.9184-2.6112 1.792-4.864 3.9936-2.2016 2.2528-3.9936 4.864-1.7408 2.6112-2.9184 5.5296-1.2288 2.9184-1.8432 5.9904-0.6144 3.072-0.6144 6.2464t0.6144 6.2464q0.6144 3.072 1.8432 5.9904 1.1776 2.9184 2.9184 5.5296 1.792 2.6112 3.9936 4.864 2.2528 2.2016 4.864 3.9936 2.6112 1.7408 5.5296 2.9184 2.9184 1.2288 5.9904 1.8432 3.072 0.6144 6.2464 0.6144t6.2464-0.6144q3.072-0.6144 5.9904-1.8432 2.9184-1.1776 5.5296-2.9184 2.6112-1.792 4.864-3.9936 2.2016-2.2528 3.9936-4.864 1.7408-2.6112 2.9184-5.5296 1.2288-2.9184 1.8432-5.9904 0.6144-3.072 0.6144-6.2464zM889.6 352a32 32 0 0 1-32-32v-128H793.6v128a32 32 0 0 1-32 32H601.6a32 32 0 0 1-32-32v-288a32 32 0 1 1 64 0v256h96v-128c0-17.664 14.336-32 32-32h128c17.664 0 32 14.336 32 32V320a32 32 0 0 1-32 32z"  horiz-adv-x="1280" />
      
      <glyph glyph-name="numfill" unicode="&#58972;" d="M194.048 28.416h89.6C188.416 131.072 140.8 248.704 140.8 381.184 144.64 511.872 191.168 632.32 280.768 742.4H194.048C104.448 641.6 56.832 521.216 51.2 381.184c1.92-134.4 49.472-252.032 142.848-352.768z m549.184 0h86.784c93.312 100.736 140.928 218.368 142.784 352.768-5.632 141.888-52.224 262.272-139.968 361.216h-89.6c89.6-110.08 136.256-230.528 139.968-361.216 0-136.256-46.656-253.824-139.968-352.768zM383.168 641.152a25.6 25.6 0 0 1 0-51.2h256a25.6 25.6 0 1 1 0 51.2h-256z m-25.6-486.4c0 14.144 11.52 25.6 25.6 25.6h76.8v409.6h102.4v-409.6h76.8a25.6 25.6 0 0 0 0-51.2h-256a25.6 25.6 0 0 0-25.6 25.6z"  horiz-adv-x="1024" />
      
      <glyph glyph-name="fillblank2" unicode="&#58973;" d="M885.888 20.864h-149.44v74.688h149.44v597.76h-149.44V768h149.44c41.216 0 74.688-33.472 74.688-74.688v-597.76c0-41.28-33.472-74.688-74.688-74.688zM773.76 581.12a37.376 37.376 0 0 0-37.376-37.312H288.128a37.376 37.376 0 1 0 0 74.688h448.32c20.608 0 37.376-16.704 37.376-37.376z m-635.136-485.632h149.44v-74.688H138.688A74.688 74.688 0 0 0 64 95.552v597.76C64 734.528 97.472 768 138.688 768h149.44v-74.688H138.688v-597.76z m597.76 261.504H288.128a37.376 37.376 0 0 0 0 74.752h448.32a37.376 37.376 0 1 0 0-74.752z m0-186.752H288.128a37.376 37.376 0 1 0 0 74.688h448.32a37.376 37.376 0 1 0 0-74.688z"  horiz-adv-x="1024" />
      
      <glyph glyph-name="shortanswer2" unicode="&#58974;" d="M850.176-63.104H174.72c-60.544 0-109.824 49.28-109.824 109.824V722.176C64.896 782.72 114.176 832 174.72 832h675.456C910.72 832 960 782.72 960 722.176V46.72c0-60.544-49.28-109.824-109.824-109.824zM174.72 757.12a35.072 35.072 0 0 1-35.008-35.072V46.72c0-19.328 15.68-35.072 35.008-35.072h675.456a35.072 35.072 0 0 1 35.008 35.072V722.176a35.072 35.072 0 0 1-35.008 35.008H174.72zM283.904 450.56h-35.008a37.376 37.376 0 1 0 0 74.88h35.008a37.376 37.376 0 1 0 0-74.88z m492.096 0h-376.32a37.376 37.376 0 1 0 0 74.88h376.32a37.376 37.376 0 1 0 0-74.88z m-492.16-207.104H248.96a37.376 37.376 0 1 0 0 74.88h35.008a37.376 37.376 0 1 0 0-74.88z m492.16 0h-376.32a37.376 37.376 0 1 0 0 74.88h376.32a37.376 37.376 0 1 0 0-74.88z"  horiz-adv-x="1024" />
      
      <glyph glyph-name="judge" unicode="&#58975;" d="M864-64h-704C108.8-64 64-19.2 64 32v704C64 787.2 108.8 832 160 832h704c51.2 0 96-44.8 96-96v-704c0-51.2-44.8-96-96-96zM160 768c-19.2 0-32-12.8-32-32v-704c0-19.2 12.8-32 32-32h704c19.2 0 32 12.8 32 32v704c0 19.2-12.8 32-32 32h-704zM518.4 614.4l-51.2 51.2-121.6-115.2-70.4 70.4-51.2-51.2L345.6 448l172.8 166.4z m204.8-320l-57.6-51.2-57.6 57.6-51.2-57.6 57.6-51.2-57.6-64 51.2-51.2 57.6 57.6 57.6-57.6 51.2 51.2-51.2 64 57.6 57.6-57.6 44.8z m-460.8-108.8l448 448 51.2-51.2-448-448-51.2 51.2z"  horiz-adv-x="1024" />
      
      <glyph glyph-name="clock" unicode="&#58971;" d="M996.8 359.872a532.288 532.288 0 0 0-37.12-188.608 475.072 475.072 0 0 0-96.96-149.12l48.64-87.488a41.984 41.984 0 0 0-16.192-56.576 41.408 41.408 0 0 0-56.128 15.68l-40 71.872A490.368 490.368 0 0 0 512-128h-0.448a490.048 490.048 0 0 0-287.744 94.272l-40.384-72.576a41.472 41.472 0 0 0-72.384 40.704l49.216 88.448a473.472 473.472 0 0 0-96.64 148.928 532.48 532.48 0 0 0-36.8 188.16V360.32a532.096 532.096 0 0 0 37.696 190.08 486.4 486.4 0 0 0 258.24 259.84 522.24 522.24 0 0 0 188.8 38.016H512a522.24 522.24 0 0 0 188.8-38.016 486.528 486.528 0 0 0 258.24-259.84c24.064-60.544 36.864-124.928 37.76-190.08v-0.448z m-200.192 286.848a402.24 402.24 0 0 1-569.536 0 408.576 408.576 0 0 1 0-573.248 402.432 402.432 0 0 1 567.616-1.92l1.92 1.92a408.512 408.512 0 0 1 0 573.248z m-55.296-373.248H499.328a41.6 41.6 0 0 0-41.408 41.6V586.688a41.408 41.408 0 1 0 82.88 0v-229.952h200.576a41.728 41.728 0 0 0 0-83.264z m195.136 424.448a41.216 41.216 0 0 0-33.408 16.896 520.832 520.832 0 0 1-105.344 106.56l-0.192 0.192a41.6 41.6 0 0 0-7.232 57.792 40.96 40.96 0 0 0 57.216 8.64h0.192a605.184 605.184 0 0 0 121.984-123.52 41.792 41.792 0 0 0-33.28-66.688v0.128zM227.84 821.44A524.8 524.8 0 0 1 123.84 716.8l-1.344-1.92a41.216 41.216 0 0 0-57.92-8.768 41.92 41.92 0 0 0-8.768 58.368A606.208 606.208 0 0 0 177.856 887.936l0.32 0.192a41.216 41.216 0 0 0 56.576-9.152c13.44-17.792 10.56-42.88-6.464-57.216l-0.448-0.32z"  horiz-adv-x="1024" />
      
      <glyph glyph-name="share1" unicode="&#58970;" d="M640 725.312a42.688 42.688 0 1 0 0 85.376h256c23.552 0 42.688-19.136 42.688-42.688v-256a42.688 42.688 0 1 0-85.376 0V664.96L456.832 268.48a42.688 42.688 0 0 0-60.352 60.352l396.48 396.48H640z m-426.688-128a42.688 42.688 0 0 1-42.624-42.624v-469.376a42.688 42.688 0 0 1 42.624-42.624h469.376a42.688 42.688 0 0 1 42.624 42.624v256a42.688 42.688 0 0 0 85.376 0v-256a128 128 0 0 0-128-128H213.312a128 128 0 0 0-128 128V554.688a128 128 0 0 0 128 128h256a42.688 42.688 0 0 0 0-85.376h-256z"  horiz-adv-x="1024" />
      
      <glyph glyph-name="jianli" unicode="&#58960;" d="M960.40352 156l-268.656-246c-6.576-6-19.68-6-26.256-6H121.50752C82.24352-96 55.98752-72 55.98752-36V804C55.98752 840 82.24352 864 121.50752 864H907.98752c39.36 0 65.52-24 59.04-60v-624c0-12 0-17.952-6.624-24z m-249.024-144L855.57152 144h-111.36c-19.68 0-32.832-12-32.832-30v-102zM907.98752 774.048c0 18-13.104 29.952-32.784 29.952H154.24352c-19.584 0-32.736-12-32.736-29.952v-780c0-18.048 13.152-30.048 32.784-30.048h491.52V144c0 36 26.256 60 65.568 60h196.608V774.048z m-229.392-420c-19.632 0-32.784 11.952-32.784 29.952 0 66.048-58.944 120-131.04 120S383.68352 450.048 383.68352 384c0-18-13.104-29.952-32.784-29.952-19.68 0-32.736 11.952-32.736 29.952 0 66.048 39.36 126 104.832 156-26.16 24-39.36 54-39.36 84 0 66 59.04 120 131.136 120 72.096 0 131.04-54 131.04-120 0-30-13.056-60-39.264-84 65.52-30 104.832-89.952 104.832-156 0-18-13.104-29.952-32.784-29.952zM514.77152 684c-39.36 0-65.52-24-65.52-60s26.208-60 65.52-60c39.36 0 65.52 24 65.52 60s-26.16 60-65.52 60zM350.89952 264h196.656c19.68 0 32.736-12 32.736-30s-13.104-30-32.736-30H350.89952c-19.68 0-32.736 12-32.736 30s13.056 30 32.736 30z m0-120h131.136c19.68 0 32.736-12 32.736-30s-13.104-30-32.736-30H350.89952c-19.68 0-32.736 12-32.736 30S331.21952 144 350.89952 144z"  horiz-adv-x="1024" />
      
      <glyph glyph-name="zuopin" unicode="&#58892;" d="M772.954 85.73H101.28c-20.608 0-37.315 16.708-37.315 37.318V794.725c0 20.609 16.707 37.315 37.315 37.315h671.674c20.606 0 37.315-16.706 37.315-37.315v-671.677c-0.001-20.61-16.71-37.317-37.315-37.317z m-634.36 74.633h597.042V757.41H138.594v-597.048zM922.211-63.528H250.54v74.632h634.356V645.465h74.633v-671.678c0-20.61-16.708-37.315-37.318-37.315zM500.181 272.302a37.125 37.125 0 0 0-18.62 5.008c-17.848 10.3-23.966 33.121-13.66 50.971l75.404 130.617-75.404 130.596c-10.304 17.848-4.19 40.67 13.657 50.974 17.85 10.309 40.67 4.189 50.974-13.658l86.174-149.253a37.307 37.307 0 0 0 0.002-37.314l-86.176-149.275c-6.91-11.968-19.455-18.663-32.35-18.666z"  horiz-adv-x="1024" />
      
      <glyph glyph-name="phone-forwarded" unicode="&#58894;" d="M814.82010031 850.55892281a39.94652345 39.94652345 0 1 1-56.41622906-56.47611844l91.51167563-91.57156593H626.88578187a39.94652345 39.94652345 0 1 1 0-79.83315657h223.02976501L758.46376062 531.10651594a39.94652345 39.94652345 0 0 1 56.41622907-56.41622907l159.72620437 159.66631313a39.94652345 39.94652345 0 0 1 0 56.47611937L814.82010031 850.55892281zM191.60642375 822.29091844H311.086655a119.83957031 119.83957031 0 0 0 119.77968-103.36986375c4.73129719-35.33500594 13.35543469-70.0711125 25.75263188-103.36986375a119.77968 119.77968 0 0 0-27.07020844-126.54723281l-28.62734344-28.56745313 2.99449219-4.7911875a598.89840094 598.89840094 0 0 1 175.35745219-175.29756188l4.79118656-2.99449217 28.74712405 28.74712311a119.77968 119.77968 0 0 0 50.90636345 29.88503063l8.32468781 2.09614406a119.77968 119.77968 0 0 0 67.07662125-5.03074688 473.48907563 473.48907563 0 0 1 103.78909313-25.75263092 119.77968 119.77968 0 0 0 103.01052468-120.61813783v-119.65990125a119.77968 119.77968 0 0 0-131.27853-119.65990031 829.65395531 829.65395531 0 0 0-361.67474437 128.52359719 817.97543625 817.97543625 0 0 0-251.6571075 251.53732876A830.67208219 830.67208219 0 0 0 72.42564219 691.79095689a119.77968 119.77968 0 0 0 119.18078156 130.55985186z m119.77968-79.83315656H191.66631406a40.00641281 40.00641281 0 0 1-39.76685437-42.88112531A750.59936625 750.59936625 0 0 1 268.44508906 370.54185469000004a739.04062688 739.04062688 0 0 1 227.58139219-227.52150282 749.64112875 749.64112875 0 0 1 326.39962874-116.30606906 39.94652345 39.94652345 0 0 1 43.53991407 40.1261925v120.7379175a39.88663312 39.88663312 0 0 1-33.95754 40.4855325 552.54366469 552.54366469 0 0 0-120.97747687 30.18447938 39.94652345 39.94652345 0 0 1-41.98277813-8.86369688l-50.72669437-50.666805a39.94652345 39.94652345 0 0 0-47.91187219-6.46810219 678.73155844 678.73155844 0 0 0-254.53182 254.53182 39.94652345 39.94652345 0 0 0 6.40821281 47.91187219l50.54702438 50.60691563a39.94652345 39.94652345 0 0 1 8.98347656 42.16244718 551.6453175 551.6453175 0 0 0-30.0646997 120.55824844A39.94652345 39.94652345 0 0 1 311.38610375 742.45776187z"  horiz-adv-x="1024" />
      
      <glyph glyph-name="shenfenzheng1" unicode="&#58994;" d="M928 736a32 32 0 0 0 32-31.488V64a32 32 0 0 0-31.488-32H96a32 32 0 0 0-32 31.488V704a32 32 0 0 0 31.488 32H928z m-40.021333-72.021333H136.021333v-560h752V663.978667zM372.906667 545.024a111.701333 111.701333 0 0 0 111.36-112c0-29.098667-10.965333-55.466667-29.056-75.52a158.08 158.08 0 0 0 74.581333-126.08 7.722667 7.722667 0 0 0-7.808-8.362667h-43.904a7.978667 7.978667 0 0 0-7.850667 7.253334v0.213333a97.877333 97.877333 0 0 1-97.237333 90.496c-50.688 0-92.586667-39.168-97.066667-88.96l-0.128-1.536a7.978667 7.978667 0 0 0-7.893333-7.466667H224a7.978667 7.978667 0 0 0-8.021333 8.362667 158.165333 158.165333 0 0 0 74.624 126.122667 111.786667 111.786667 0 0 0-29.098667 75.52c0 61.866667 49.92 111.957333 111.36 111.957333z m427.904-204.970667c3.882667 0 7.082667-3.626667 7.082666-8.021333v-48h0.128c0-4.394667-3.2-7.978667-7.125333-7.978667h-185.813333c-3.882667 0-7.082667 3.584-7.082667 7.978667v48c0 4.394667 3.2 8.021333 7.082667 8.021333h185.728zM372.992 484.992c-28.501333 0-51.712-23.296-51.712-52.010667 0-28.672 23.210667-51.968 51.712-51.968 28.501333 0 51.712 23.296 51.712 51.968 0 28.714667-23.210667 52.053333-51.712 52.053334z m427.818667-0.981333c3.882667 0 7.082667-3.626667 7.082666-8.021334v-48h0.128c0-4.394667-3.2-7.978667-7.125333-7.978666h-185.813333c-3.882667 0-7.082667 3.584-7.082667 7.978666V475.989333c0 4.394667 3.2 8.021333 7.082667 8.021334h185.728z"  horiz-adv-x="1024" />
      
      <glyph glyph-name="g-cascader" unicode="&#59455;" d="M503.02453466 181.43065124999998c4.41869063-6.07569962 13.39415599-6.07569962 17.81284661 0l245.7896665 339.68684248c5.24719513 7.31845635 0 17.53667845-8.97546535 17.53667845H692.89014782c-14.08457639 0-27.47873238-6.76612003-35.76377731-18.22709886L512 319.65281762999996 366.73554542 520.42707332c-8.28504494 11.46097883-21.54111683 18.22709886-35.76377732 18.22709886H266.21033349c-8.97546534 0-14.22266047-10.21822208-8.97546534-17.53667845l245.78966651-339.68684248zM930.70222222 839.11111111H93.29777778c-20.13866667 0-36.40888889-16.27022222-36.40888889-36.40888889v-837.40444444c0-20.13866667 16.27022222-36.40888889 36.40888889-36.40888889h837.40444444c20.13866667 0 36.40888889 16.27022222 36.40888889 36.40888889V802.70222222c0 20.13866667-16.27022222 36.40888889-36.40888889 36.40888889z m-45.51111111-828.30222222H138.80888889V757.1911111100001h746.38222222v-746.38222222z"  horiz-adv-x="1024" />
      
      <glyph glyph-name="wenjian-wenbenwendang" unicode="&#59010;" d="M774.4625-53.38125000000002H249.5375c-56.9625 0-103.29375 46.340625-103.29375 103.29375V718.0875c0 56.9625 46.340625 103.29375 103.29375 103.29375h383.878125c36.54375 0 71.371875-15.73125 95.53125-43.153125l117.01875-132.796875a127.2515625 127.2515625 0 0 0 31.790625-84.178125v-511.340625c0-56.9625-46.340625-103.29375-103.29375-103.29375zM249.5375 752.8875c-19.190625 0-34.8-15.609375-34.8-34.8v-668.175c0-19.190625 15.609375-34.8 34.8-34.8h524.925c19.190625 0 34.8 15.609375 34.8 34.8V561.253125c0 14.325-5.221875 28.14375-14.690625 38.896875L677.553125 732.946875a58.87125 58.87125 0 0 1-44.1375 19.940625H249.5375zM845.271875 525.975H704.225c-56.9625 0-103.29375 46.340625-103.29375 103.29375V789.421875h68.49375v-160.153125c0-19.190625 15.609375-34.8 34.8-34.8h141.046875v-68.49375zM629.69375 428.5125H394.30625c-18.91875 0-34.246875-15.3375-34.246875-34.246875v-40.471875c0-18.91875 15.3375-34.246875 34.246875-34.246875 18.91875 0 34.246875 15.3375 34.246875 34.246875v6.225h49.2v-168.459375h-3.590625c-18.91875 0-34.246875-15.3375-34.246875-34.246875 0-18.91875 15.3375-34.246875 34.246875-34.246875h75.675c18.91875 0 34.246875 15.3375 34.246875 34.246875 0 18.91875-15.3375 34.246875-34.246875 34.246875h-3.590625V360.01874999999995h49.2v-6.225c0-18.91875 15.3375-34.246875 34.246875-34.246875 18.91875 0 34.246875 15.3375 34.246875 34.246875v40.471875c0 18.91875-15.328125 34.246875-34.246875 34.246875z"  horiz-adv-x="1024" />
      
      <glyph glyph-name="ic_image_upload" unicode="&#58967;" d="M832.01 543.99C832.01 588 796.01 624 752 624s-80.01-36-80.01-80.01 36-80.01 80.01-80.01 80.01 36 80.01 80.01zM32 783.99v-800.01h480v80.01H112.01V168l240 240L512 248.01l56.01 56.01-216 216-240-240V704.01h800.01v-279.99l80.01-80.01V784.02zM923.99 75.99000000000001L980 132l-188.01 188.01-188.01-188.01 56.01-56.01L752 168v-224.01h80.01V168z"  horiz-adv-x="1024" />
      
      <glyph glyph-name="tupian1" unicode="&#58962;" d="M959.552 760.064c-0.064 21.76-16.704 39.424-37.184 39.424H102.528c-20.544 0-37.184-17.664-37.184-39.424v-750.528c0-21.76 16.576-39.36 37.12-39.36l0.064-0.128h819.84c20.48 0.064 37.12 17.664 37.12 39.424v0.064h0.064V760.064z m-75.328-710.976H140.416v87.36c7.104 20.032 31.552 86.272 67.776 151.936 51.712 93.696 104.576 145.344 148.992 145.344 59.904 0 125.824-94.656 185.664-266.496l26.88-77.44 39.936 70.72a286.72 286.72 0 0 0 38.656 50.368c19.52 20.16 49.664 44.288 82.368 44.288 22.144 0 43.968-10.688 66.688-32.64 29.76-28.8 59.008-75.52 86.848-138.816v-34.624z m0.768 188.224a333.568 333.568 0 0 1-37.44 43.648c-36.544 35.392-75.904 53.312-116.928 53.312-46.272 0-93.184-23.616-135.808-68.288l-6.208-6.72c-30.4 75.968-61.952 133.696-95.744 175.424-41.984 51.776-87.616 78.016-135.68 78.016-74.048 0-145.792-62.08-213.312-184.448l-3.968-7.36V720.512h745.152v-483.2h-0.064zM676.224 505.216c6.208-7.168 13.568-13.184 21.824-17.536a70.912 70.912 0 0 1 83.2 12.032 79.36 79.36 0 0 1 17.984 26.048 83.328 83.328 0 0 1 1.664 61.056 79.232 79.232 0 0 1-17.152 27.712 73.856 73.856 0 0 1-28.48 18.688 70.656 70.656 0 0 1-55.296-3.2 74.56 74.56 0 0 1-23.424-18.24 80.576 80.576 0 0 1-19.648-53.44 82.176 82.176 0 0 1 19.328-53.12z"  horiz-adv-x="1024" />
      
      <glyph glyph-name="boshimao" unicode="&#58996;" d="M494.7968 789.504c10.74062187 5.46133333 23.66577813 5.46133333 34.4064 0l418.15608853-211.08053333a40.18631147 40.18631147 0 0 0 6.82666667-4.41457814c4.096-3.32231147 7.28177813-7.28177813 9.3752896-11.6963552l0.68266667-1.59288853a33.04106667 33.04106667 0 0 0 2.59413333-9.23875627l0.27306667-4.41457706v-337.73795627c0-19.56977813-16.5660448-35.49866667-36.95502294-35.49866667a36.49991147 36.49991147 0 0 0-36.63644373 30.6744896l-0.3640896 4.82417707V488.35697813l-58.11768853-29.30915626v-301.73866667c0-46.8764448-34.36088853-87.6544-81.92-99.66933333-63.488-15.9744-128.25031147-39.00302187-187.14168854-69.99608854a116.59946667 116.59946667 0 0 0-107.95235626 0c-58.89137813 30.9475552-123.65368853 54.02168853-187.14168854 70.0416-44.78293333 11.2867552-77.824 48.01422187-81.60142186 91.43182187l-0.3640896 8.192v301.73866667L76.64071147 515.6636447999999a34.72497813 34.72497813 0 0 0-4.64213334 60.0291552l4.64213334 2.73066667z m266.28551147-367.8208l-231.87911147-117.10008853a38.36586667 38.36586667 0 0 0-34.4064 0l-231.92462187 117.10008853v-264.3740448c0-13.97191147 11.0592-27.07911147 26.8515552-31.03857707 68.85831147-17.3852448 139.0819552-42.32533333 203.88977814-76.45866666 11.37777813-6.00746667 25.3952-6.00746667 36.77297706 0 64.80782187 34.13333333 135.03146667 59.07342187 203.88977814 76.45866666 14.01742187 3.5043552 24.3484448 14.29048853 26.4419552 26.39644374l0.4096 4.64213333-0.0455104 264.3740448zM511.95448853 718.0515551999999L173.2608 547.0663114700001l338.69368853-170.93973334 338.78471147 170.93973334-338.78471147 170.98524373z"  horiz-adv-x="1024" />
      
      <glyph glyph-name="gender" unicode="&#58969;" d="M789.942857 416.914286V660.114286l95.085714-95.085715 51.2 51.2-157.257142 157.257143c-14.628571 14.628571-36.571429 14.628571-51.2 0l-157.257143-157.257143 51.2-51.2 95.085714 95.085715v-245.028572c-102.4-18.285714-181.028571-107.885714-181.028571-215.771428 0-120.685714 98.742857-219.428571 219.428571-219.428572s219.428571 98.742857 219.428571 219.428572c0 109.714286-80.457143 201.142857-184.685714 217.6zM755.2 54.85714299999995c-80.457143 0-146.285714 65.828571-146.285714 146.285714s65.828571 146.285714 146.285714 146.285714 146.285714-65.828571 146.285714-146.285714-65.828571-146.285714-146.285714-146.285714zM517.485714 566.857143c0 120.685714-98.742857 219.428571-219.428571 219.428571s-219.428571-98.742857-219.428572-219.428571c0-107.885714 78.628571-199.314286 182.857143-215.771429V237.71428600000002h-164.571428v-73.142857h164.571428v-182.857143h73.142857V164.57142899999997h164.571429v73.142857h-164.571429v113.371428c104.228571 16.457143 182.857143 106.057143 182.857143 215.771429z m-365.714285 0c0 80.457143 65.828571 146.285714 146.285714 146.285714s146.285714-65.828571 146.285714-146.285714-65.828571-146.285714-146.285714-146.285714-146.285714 64-146.285714 146.285714z"  horiz-adv-x="1042" />
      
      <glyph glyph-name="email" unicode="&#58980;" d="M111.50222222 675.27111111v-546.13333333h800.99555556V675.27111111H111.50222222z m0 72.81777778h800.99555556a72.81777778 72.81777778 0 0 0 72.81777777-72.81777778v-546.13333333a72.81777778 72.81777778 0 0 0-72.81777777-72.81777778H111.50222222a72.81777778 72.81777778 0 0 0-72.81777777 72.81777778V675.27111111a72.81777778 72.81777778 0 0 0 72.81777777 72.81777778zM799.08408889 675.27111111H224.91591111L512 410.28721778 799.08408889 675.27111111zM107.09674667 684.91946667A36.40888889 36.40888889 0 0 0 131.81838222 748.08888889h760.36323556a36.40888889 36.40888889 0 0 0 24.72163555-63.16942222l-355.49639111-328.15331556a72.81777778 72.81777778 0 0 0-98.81372444 0L107.13315555 684.91946667z"  horiz-adv-x="1024" />
      
      <glyph glyph-name="ex-textarea" unicode="&#59004;" d="M333.44 810.538667l5.077333-0.298667a42.666667 42.666667 0 0 0 36.864-26.538667l204.970667-504.064a42.666667 42.666667 0 1 0-79.018667-32.170666l-68.48 168.448H236.074667L167.68 247.765333a42.666667 42.666667 0 0 0-79.061333 32.128L293.632 783.957333a42.666667 42.666667 0 0 0 44.885333 26.282667z m1.024-152.746667l-63.701333-156.586667h127.36L334.506667 657.834667z m561.621333 152.789333a42.666667 42.666667 0 0 0 0-85.333333h-170.666666a42.666667 42.666667 0 1 0 0 85.333333h170.666666z m-768-768a42.666667 42.666667 0 1 1 0-85.333333h768a42.666667 42.666667 0 0 1 0 85.333333h-768z m597.333334 266.666667a42.666667 42.666667 0 1 1 0-85.333333h170.666666a42.666667 42.666667 0 0 1 0 85.333333h-170.666666z m-42.666667 213.333333a42.666667 42.666667 0 0 0 42.666667 42.666667h170.666666a42.666667 42.666667 0 0 0 0-85.333333h-170.666666a42.666667 42.666667 0 0 0-42.666667 42.666666z"  horiz-adv-x="1024" />
      
      <glyph glyph-name="fuzhimoban" unicode="&#58968;" d="M912 876.16H340.48a96 96 0 0 1-96-96v-83.2h64v83.2a32 32 0 0 0 32 32h571.52a32 32 0 0 0 32-32V128a31.36 31.36 0 0 0-32-31.36h-164.48v-64h164.48a96 96 0 0 1 96 95.36V780.16a96 96 0 0 1-96 96zM683.52-113.28H112a96 96 0 0 0-96 96V632.96a96 96 0 0 0 96 96h571.52a96 96 0 0 0 96-96v-650.24a96 96 0 0 0-96-96zM112 664.96a32 32 0 0 1-32-32v-650.24a32 32 0 0 1 32-32h571.52a32 32 0 0 1 32 32V632.96a32 32 0 0 1-32 32zM603.52 275.84H192a32 32 0 0 0 0 64h411.52a32 32 0 0 0 0-64zM397.44 69.76a32 32 0 0 0-32 32V512a32 32 0 0 0 32 32 32 32 0 0 0 32-32v-412.16a32 32 0 0 0-32-30.08z"  horiz-adv-x="1024" />
      
      <glyph glyph-name="wechat1" unicode="&#58966;" d="M308.6848 776.7808C23.6032 725.8624-71.424 403.7888 155.3408 256.3328c12.4416-7.9616 12.4416-7.0912-6.2208-62.72L133.1456 145.92l57.4208 30.7712 57.4464 30.7968 30.464-7.424c32-7.9872 72.832-13.5936 100.096-13.5936h16.256l-5.632 21.6064c-44.6976 164.608 109.824 327.7056 310.8608 327.7056h27.2384l-5.632 19.5328c-44.1088 154.24-230.3232 254.0032-412.9792 221.44z m-24.8576-144.1536c30.208-20.4288 31.9744-64.5376 2.944-83.4816-47.0528-30.7968-102.144 23.3728-70.4512 69.5552 13.9264 20.736 47.36 27.5456 67.5072 13.9264z m242.7392 0c49.7408-33.4592 12.4416-110.72-43.2128-89.4208-40.2688 15.4112-45.0048 70.7584-7.424 90.5984 14.8224 7.9872 37.888 7.3984 50.6368-1.1776z m109.824-121.984c-141.2096-25.7536-239.1808-132.9152-233.5488-256.0512 7.3984-164.9152 200.704-278.5792 386.304-227.6608l21.9136 5.9136 46.1824-24.8576c25.472-13.9264 46.7712-23.9872 47.36-22.784 0.5888 1.4592-4.4288 19.2256-10.9568 39.6544-14.7968 45.568-15.104 42.3424 4.7616 56.5504 223.2064 160.1536 27.2128 481.6384-262.016 429.2352z m-5.632-132.9152c12.4416-8.2944 18.944-29.0048 13.6448-44.1088-11.264-32.256-59.52-34.6368-72.5504-3.5584-14.7968 35.84 26.0608 68.992 58.9312 47.6672z m197.76-3.5584c19.5584-18.6368 16.2816-50.3296-6.5024-62.1568-34.944-17.7664-71.6544 17.7664-53.5808 51.7888 11.8272 21.9136 42.3424 27.2384 60.0832 10.368z"  horiz-adv-x="1024" />
      
      <glyph glyph-name="tel" unicode="&#58965;" d="M692.5312 797.5424q-60.0576 15.0528-121.344 5.888-2.816-0.4096-5.5296-1.3312t-5.2224-2.304q-2.4576-1.3824-4.7104-3.1744-2.2016-1.792-4.096-3.9424-1.8432-2.1504-3.2768-4.608-1.4336-2.4576-2.4576-5.12-1.024-2.7136-1.536-5.4784-0.4608-2.816-0.4608-5.6832 0-3.1744 0.6144-6.2464t1.8432-5.9904q1.1776-2.9184 2.9184-5.5296 1.792-2.6112 3.9936-4.864 2.2528-2.2016 4.864-3.9936 2.6112-1.7408 5.5296-2.9184 2.9184-1.2288 5.9904-1.8432 3.072-0.6144 6.2464-0.6144 2.3552 0 4.7104 0.3584 48.64 7.2704 96.3584-4.7104 65.4848-16.384 113.5104-64.4608 48.0768-48.0256 64.512-113.5616 11.9296-47.616 4.6592-96.256-0.3584-2.4064-0.3584-4.7616 0-3.1744 0.6144-6.2464t1.8432-5.9904q1.1776-2.9184 2.9184-5.5296 1.792-2.6112 3.9936-4.864 2.2528-2.2528 4.864-3.9936 2.6112-1.7408 5.5296-2.9696 2.9184-1.1776 5.9904-1.792 3.072-0.6144 6.2464-0.6144 2.8672 0 5.632 0.512 2.8672 0.512 5.5296 1.4848 2.6624 1.024 5.12 2.4576 2.4576 1.4336 4.608 3.328 2.1504 1.8432 3.9936 4.096 1.792 2.1504 3.1744 4.6592 1.3312 2.56 2.2528 5.2224 0.9216 2.7136 1.3312 5.5296 9.1648 61.2864-5.888 121.344-20.736 82.6368-81.3056 143.2064t-143.2064 81.3056zM715.9296 605.6448q-57.0368 56.9856-136.8576 45.056-2.816-0.3584-5.4784-1.28-2.7136-0.9216-5.2224-2.304-2.5088-1.3824-4.7104-3.1744t-4.096-3.9424q-1.8432-2.1504-3.328-4.608-1.4336-2.4576-2.4064-5.12-1.024-2.7136-1.536-5.5296-0.512-2.816-0.512-5.632 0-3.1744 0.6656-6.2464 0.6144-3.072 1.792-6.0416 1.2288-2.8672 2.9696-5.5296 1.7408-2.56 3.9936-4.8128 2.2016-2.2528 4.8128-3.9936 2.6624-1.7408 5.5296-2.9696 2.9184-1.1776 6.0416-1.792 3.072-0.6144 6.2464-0.6144 2.3552 0 4.7104 0.3072 47.9232 7.168 82.1248-27.0336t27.0336-82.1248q-0.3072-2.3552-0.3072-4.7104 0-3.1744 0.6144-6.2464t1.792-6.0416q1.2288-2.9184 2.9696-5.5296 1.7408-2.56 3.9936-4.8128 2.2016-2.2528 4.8128-3.9936 2.6624-1.7408 5.5296-2.9696 2.9184-1.1776 6.0416-1.792 3.072-0.6144 6.2464-0.6144 2.816 0 5.632 0.512t5.4784 1.4848q2.7136 1.024 5.12 2.4064 2.5088 1.4848 4.608 3.328 2.2016 1.8944 3.9936 4.096 1.792 2.2016 3.1744 4.7104 1.3824 2.5088 2.304 5.1712 0.9216 2.7136 1.3312 5.5296 11.8784 79.872-45.1072 136.8576zM306.688 740.352H198.4512q-57.4976 0-91.4432-44.7488-34.7136-45.8752-16.1792-100.864 88.2688-261.632 218.3168-391.68t391.68-218.368q54.9888-18.5344 100.864 16.2304 44.8 33.8944 44.8 91.4432v108.1856q0 43.9296-38.4 65.28l-94.208 52.4288q-34.4576 19.1488-69.7344 1.536l-90.4192-45.2608q-59.0336 14.5408-108.8 64.256-49.7664 49.8176-64.512 109.056l45.2608 90.4704q17.5616 35.2256-1.536 69.632L371.9168 701.952q-21.2992 38.4-65.2288 38.4zM158.0544 656.896q14.6944 19.456 40.448 19.456H306.688q6.2464 0 9.3184-5.4272l52.224-94.0544q2.7136-4.9152 0.1536-9.9328l-50.2784-100.5568q-4.864-9.728-2.7648-20.4288 16.4352-84.48 84.3264-152.4224 67.9424-67.8912 152.2688-84.0704 10.5984-2.048 20.3264 2.816l100.5056 50.2784q5.0688 2.5088 9.984-0.256l94.2592-52.3776q5.4784-3.072 5.4784-9.3696v-108.1856q0-25.7024-19.456-40.448-18.8416-14.2848-41.728-6.5536-247.4496 83.456-366.8992 202.9568Q235.008 367.7696 151.552 615.2192q-7.7312 22.8864 6.5536 41.728z"  horiz-adv-x="1024" />
      
      <glyph glyph-name="page" unicode="&#58963;" d="M832 275.968c17.700571 0 31.963429-14.262857 31.963429-31.963429v-251.977142a8.045714 8.045714 0 0 0-7.972572-8.045715h-47.981714a8.045714 8.045714 0 0 0-8.045714 8.045715V211.968H224.109714v-219.940571a8.045714 8.045714 0 0 0-8.045714-8.045715h-47.981714a8.045714 8.045714 0 0 0-8.045715 8.045715V244.004571c0 17.700571 14.336 31.963429 32.036572 31.963429h640z m-599.990857 144.091429c4.388571 0 8.045714-3.657143 8.045714-8.045715v-56.027428a8.045714 8.045714 0 0 0-8.045714-8.045715H119.954286a8.045714 8.045714 0 0 0-8.045715 8.045715v56.027428c0 4.388571 3.657143 8.045714 8.045715 8.045715h111.908571z m223.963428 0c4.388571 0 8.045714-3.657143 8.045715-8.045715v-56.027428a8.045714 8.045714 0 0 0-8.045715-8.045715h-111.908571a8.045714 8.045714 0 0 0-8.045714 8.045715v56.027428c0 4.388571 3.584 8.045714 8.045714 8.045715h111.908571z m224.036572 0c4.388571 0 8.045714-3.657143 8.045714-8.045715v-56.027428a8.045714 8.045714 0 0 0-8.045714-8.045715H568.027429a8.045714 8.045714 0 0 0-8.045715 8.045715v56.027428c0 4.388571 3.657143 8.045714 8.045715 8.045715h111.908571z m223.963428 0c4.388571 0 8.045714-3.657143 8.045715-8.045715v-56.027428a8.045714 8.045714 0 0 0-8.045715-8.045715h-111.908571a8.045714 8.045714 0 0 0-8.045714 8.045715v56.027428c0 4.388571 3.584 8.045714 8.045714 8.045715h111.908571zM215.990857 783.945143c4.388571 0 8.045714-3.657143 8.045714-8.045714v-219.940572h575.926858V775.972571c0 4.388571 3.657143 8.045714 8.045714 8.045715h47.981714c4.388571 0 8.045714-3.657143 8.045714-8.045715v-251.977142a31.963429 31.963429 0 0 0-32.036571-31.963429h-640a32.036571 32.036571 0 0 0-32.036571 31.963429V776.045714c0 4.388571 3.657143 8.045714 8.045714 8.045715h47.981714z"  horiz-adv-x="1024" />
      
      <glyph glyph-name="carousel" unicode="&#58964;" d="M909.385143 677.522286H114.614857a33.718857 33.718857 0 1 0 0 67.510857h794.770286a33.718857 33.718857 0 1 0 0-67.510857z m0-654.482286H114.614857a33.718857 33.718857 0 1 0 0 67.510857h794.770286a33.718857 33.718857 0 1 0 0-67.510857zM211.163429 248.832a28.013714 28.013714 0 0 0-20.845715 9.216L97.865143 360.155429a28.086857 28.086857 0 0 0 0 37.741714l97.572571 107.666286a28.086857 28.086857 0 1 0 41.691429-37.741715l-80.457143-88.795428 75.337143-83.236572a28.086857 28.086857 0 0 0-20.845714-46.957714zM343.04 264.338286h-51.2l90.185143 274.944h63.268571l87.478857-274.944h-53.833142l-18.797715 58.002285H361.837714l-18.797714-58.002285z m32.256 104.082285h71.387429l-33.645715 117.394286h-1.389714l-36.352-117.394286z m231.570286 32.694858h-49.810286c0.877714 21.723429 8.923429 37.595429 24.210286 47.542857 11.702857 6.875429 28.745143 10.898286 51.2 11.849143 47.542857-0.950857 71.753143-24.722286 72.630857-71.314286v-111.469714c1.828571-6.948571 2.706286-11.410286 2.706286-13.385143h-45.787429a127.049143 127.049143 0 0 0-2.633143 25.307428c-10.825143-18.870857-28.745143-28.233143-53.906286-28.233143-36.790857 1.974857-55.588571 20.260571-56.466285 55.003429 1.755429 28.672 14.336 49.005714 37.668571 60.928 15.213714 6.875429 37.668571 10.386286 67.291429 10.386286v17.773714c-2.706286 14.921143-10.752 22.820571-24.210286 23.844571-13.458286-1.024-21.138286-10.459429-22.893714-28.233142z m47.104-47.542858c-36.790857 1.901714-55.222857-7.972571-55.222857-29.769142 0-16.822857 8.557714-25.746286 25.6-26.770286 19.748571-0.950857 29.622857 17.846857 29.622857 56.466286zM805.814857 248.685714a28.086857 28.086857 0 0 0-20.845714 46.957715l80.457143 88.868571-75.337143 83.236571a28.086857 28.086857 0 1 0 41.691428 37.741715l92.452572-102.107429a28.16 28.16 0 0 0 0-37.741714l-97.572572-107.666286a28.086857 28.086857 0 0 0-20.845714-9.216z"  horiz-adv-x="1024" />
      
      <glyph glyph-name="share" unicode="&#59005;" d="M874.666667 352c-17.066667 0-32-14.933333-32-32v-256c0-6.4-4.266667-10.666667-10.666667-10.666667H192c-6.4 0-10.666667 4.266667-10.666667 10.666667V704c0 6.4 4.266667 10.666667 10.666667 10.666667h256c17.066667 0 32 14.933333 32 32s-14.933333 32-32 32H192C151.466667 778.666667 117.333333 744.533333 117.333333 704v-640c0-40.533333 34.133333-74.666667 74.666667-74.666667h640c40.533333 0 74.666667 34.133333 74.666667 74.666667V320c0 17.066667-14.933333 32-32 32zM874.666667 778.666667H640c-17.066667 0-32-14.933333-32-32s14.933333-32 32-32h157.866667L509.866667 428.8c-12.8-12.8-12.8-32 0-44.8 6.4-6.4 14.933333-8.533333 23.466666-8.533333s17.066667 2.133333 23.466667 8.533333l285.866667 285.866667V512c0-17.066667 14.933333-32 32-32s32 14.933333 32 32V746.666667c0 17.066667-14.933333 32-32 32z"  horiz-adv-x="1024" />
      
      </font>
</defs>
</svg>
